Миссия / The Mission (Роланд Жоффе / Roland Joffe) [1986, Великобритания, Франция, драма, приключения, история, BDRip] DVO (ОРТ) + Original Eng

Reply to topic
DL-List and Torrent activity
Size:  2.18 GB   |    Registered:  4 years 3 months   |    Completed:  0 times

Seeder not seen: Never

 
   
 
 
Author Message

star21 ®

Gender: Female

Longevity: 4 years 4 months

Posts: 551945

Location: Екатеринбург

Post 01-Dec-2015 13:56

[Quote]

Миссия / The Mission-Проповедуя Добро.- Год выпуска: 1986
Страна: Великобритания, Франция
Жанр: драма, приключения, история
Продолжительность: 02:05:05
Перевод: Профессиональный (двухголосый закадровый) - ОРТ
Cубтитры: нет
Оригинальная аудиодорожка: английский
Режиссер: Роланд Жоффе / Roland Joffe
В ролях: Роберт де Ниро (Rodrigo Mendoza), Джереми Айронс (Father Gabriel), Рэй МакЭнэлли (Cardinal Altamirano), Эйдан Куинн (Felipe Mendoza), Шери Лунги (Carlotta), Рональд Пикап (Hontar), Чак Лоу (Cabeza), Лиам Нисон (Fielding), Берселио Мойя (Indian Boy), Зигифредо Исмаре (Witch Doctor)-Мировая премьера: 16 мая 1986-Описание: Река, протекающая сквозь густые джунгли, несет замученного иезуитского священника, привязанного к грубо сколоченному кресту. Распятие проносится через скалистые стремнины и в один момент, полный ужаса и завораживающей красоты, обрушивается вниз с 70-метровой высоты и исчезает в рокочущем водопаде. Этой сценой открывается один из самых зрелищных фильмов в истории кино, о человеке со шпагой и человеке в капюшоне, объединившихся, чтобы защитить индейское племя от колониальных империй 18-го века…-Благодарности:
социолог - исходник видео с Рутора.
- собственная запись перевода ОРТ с телеканала LNT в 90-х годах через видеомагнитофон и оцифровка с видеокассеты.
- синхронизация перевода.-Данный перевод на трекере появляется впервые.
В переводе несколько вставок перевода Екатеринбург Арт на пропущенных местах во время записи.
Текст читают Владимир Антоник и Ольга Гаспарова.-Рейтинг

MPAA: PG - Рекомендуется присутствие родителей.-Качество видео: BDRip
Формат видео: AVI -> //SAMPLE//
Видео: XviD, 720x304 (2,35:1), 23.976 fps, 1904 kbps avg
Аудио:
1 - 48 khz, AC3 Dolby Digital, 2/0 (L,R) ch, ~192 kbps [ОРТ / LNT] VHSRip
2 - 48 khz, AC3 Dolby Digital, 5/1 (L,C,R,L,R) ch, ~384 kbps [Английский]

MediaInfo

General
Complete name : E:\Торрент Файлы\Будущие Релизы на Трекере\2.05 - 2.20 и более гб\Миссия (LNT + Original).avi
Format : AVI
Format/Info : Audio Video Interleave
Format profile : OpenDML
File size : 2.18 GiB
Duration : 2h 5mn
Overall bit rate : 2 498 Kbps
Movie name : Миссия / The Mission (1986) BDRip
Director : sociolog_melvas
Genre : драма, приключения, история
Writing application : VirtualDubMod 1.5.10.3 | www.virtualdub-fr.org || (build 2550/release)
Writing library : VirtualDubMod build 2550/release
Video
ID : 0
Format : MPEG-4 Visual
Format profile : Advanced Simple@L5
Format settings, BVOP : 1
Format settings, QPel : No
Format settings, GMC : No warppoints
Format settings, Matrix : Custom
Codec ID : XVID
Codec ID/Hint : XviD
Duration : 2h 5mn
Bit rate : 1 904 Kbps
Width : 720 pixels
Height : 304 pixels
Display aspect ratio : 2.35:1
Frame rate : 23.976 fps
Color space : YUV
Chroma subsampling : 4:2:0
Bit depth : 8 bits
Scan type : Progressive
Compression mode : Lossy
Bits/(Pixel*Frame) : 0.363
Stream size : 1.66 GiB (76%)
Writing library : XviD 72
Audio #1
ID : 1
Format : AC-3
Format/Info : Audio Coding 3
Mode extension : CM (complete main)
Format settings, Endianness : Big
Codec ID : 2000
Duration : 2h 5mn
Bit rate mode : Constant
Bit rate : 192 Kbps
Channel(s) : 2 channels
Channel positions : Front: L R
Sampling rate : 48.0 KHz
Compression mode : Lossy
Stream size : 172 MiB (8%)
Alignment : Split accross interleaves
Interleave, duration : 42 ms (1.00 video frame)
Interleave, preload duratio : 500 ms
Audio #2
ID : 2
Format : AC-3
Format/Info : Audio Coding 3
Mode extension : CM (complete main)
Format settings, Endianness : Big
Codec ID : 2000
Duration : 2h 5mn
Bit rate mode : Constant
Bit rate : 384 Kbps
Channel(s) : 6 channels
Channel positions : Front: L C R, Side: L R, LFE
Sampling rate : 48.0 KHz
Compression mode : Lossy
Stream size : 344 MiB (15%)
Alignment : Split accross interleaves
Interleave, duration : 42 ms (1.00 video frame)
Interleave, preload duratio : 500 ms

Скриншот c названием фильма

Скриншоты

To download the content you need:
1. Download and install torrent client [for Windows] or for mobile system
2. Click on [Download]
Attention.
If the test YOU are NOT a ROBOT - does not work, then You are using an outdated browser.
Install the current browser and click on [Download]

Do not work with Yandex browser. Uploading files to them is erroneous.
Security: torrent client is allowed by Kaspersky.

[en.asmlocator.ru].t4402.torrent 
Torrent: Registered [ 2015-12-01 13:55 ] · E2540187004A6DB20BD0A3EC55EFB53D957256CE

Download .torrent

Download

11 KB

Status: checked
Completed: 0 times
Size: 2.18 GB
terms.php
[Profile] [PM]
Display posts:    
Reply to topic

Current time is: 31-Mar 16:33

All times are UTC ± 0



You cannot post new topics in this forum
You cannot reply to topics in this forum
You cannot edit your posts in this forum
You cannot delete your posts in this forum
You cannot vote in polls in this forum
You cannot attach files in this forum
You can download files in this forum
Верим фактам, а не вранью Путина! Факт, что Правительство ведёт Россию к истреблению.
Так как численность населения падает, даже не смотря на приток эмигрантов!
Русская нация вымирает и вырождается, смешиваясь с эмигрантами!
Факт, что военных и граждан предприятий заставляют голосовать за партию Единая Россия и Путина
ПОД СТРАХОМ УВОЛЬНЕНИЯ!
Нам не нужно Правительство, блокирующее личную жизнь, интернет, нарушающее сохранность данных.
Все эти действия финансируются за счёт народа!