Шестнадцать свечей / Sixteen Candles (Джон Хьюз / John Hughes) [1984, США, мелодрама, комедия, BDRip] MVO (Пифагор)

Reply to topic
DL-List and Torrent activity
Size:  1.45 GB   |    Registered:  4 years 4 months   |    Completed:  0 times

Seeder not seen: Never

 
   
 
 
Author Message

star21 ®

Gender: Female

Longevity: 4 years 5 months

Posts: 551945

Location: Екатеринбург

Post 01-Dec-2015 13:56

[Quote]

Шестнадцать свечей / Sixteen Candles- Год выпуска: 1984
Страна: США
Жанр: мелодрама, комедия
Продолжительность: 01:32:36
Перевод: Профессиональный (многоголосый, закадровый) Cтудия Пифагор
Субтитры: нет-Режиссер: Джон Хьюз / John Hughes
В ролях: Молли Рингуолд, Энтони Майкл Холл, Пол Дули, Джастин Генри, Майкл Шоффлинг, Хэвиленд Моррис, Джон Кьюсак, Гедде Ватанабэ, Карлин Глинн, Бланш Бейкер, Эдвард Эндрюс, Джоан Кьюсак
О фильме: В день своего шестнадцатилетия Саманта Бейкер чувствует себя самым несчастным человеком на свете. Ведь из-за свадьбы сестры никто даже не вспомнил о дне ее рождения! А тут еще надоедливые бабка с дедом заставляют идти на школьный вечер с незнакомым китайцем, и ей никак не избавиться от противного новичка, воспылавшего к ней неземной любовью.
И все же, в глубине души, Саманта надеется, что парень, о котором она мечтает, обратит на нее внимание.-Релиз:
Автор: yaroslaigor
Качество: BDRip (источник: / Blu-ray / 1080p)
Формат: AVI
Видео: 704x384 (1.83:1), 23.976 fps, XviD build 65 ~1787 kbps avg, 0.28 bit/pixel
Аудио: 48 kHz, AC3 Dolby Digital, 3/2 (L,C,R,l,r) + LFE ch, ~448 kbps avg
Размер: 1487.21 Mb (1/3 DVD)
Скачать: Семпл-

Кадры из фильма


-

Mi

Формат : AVI
Формат/Информация : Audio Video Interleave
Размер файла : 1,45 Гбайт
Продолжительность : 1 ч. 32 м.
Общий поток : 2245 Кбит/сек
Название фильма : Шестнадцать свечей / Sixteen Candles (1984) BDRip
Режиссёр : yaroslaigor
Жанр : мелодрама, комедия
Программа кодирования : VirtualDubMod 1.5.10.2 (build 2542/release)
Примечание : 19.07.2015
Видео
Идентификатор : 0
Формат : MPEG-4 Visual
Профиль формата : Advanced Simple@L5
Параметр BVOP формата : 1
Параметр QPel формата : Нет
Параметр GMC формата : Без точки перехода
Параметр матрицы формата : Выборочная
Идентификатор кодека : XVID
Идентификатор кодека/Подсказка : XviD
Продолжительность : 1 ч. 32 м.
Битрейт : 1788 Кбит/сек
Ширина : 704 пикселя
Высота : 384 пикселя
Соотношение сторон : 1,85:1
Частота кадров : 23,976 кадра/сек
Цветовое пространство : YUV
Субдискретизация насыщенности : 4:2:0
Битовая глубина : 8 бит
Тип развёртки : Прогрессивная
Метод сжатия : С потерями
Бит/(Пиксели*Кадры) : 0.276
Размер потока : 1,16 Гбайт (80%)
Библиотека кодирования : XviD 65
Аудио
Идентификатор : 1
Формат : AC-3
Формат/Информация : Audio Coding 3
Расширение режима : CM (complete main)
Параметр Endianness формата : Big
Идентификатор кодека : 2000
Продолжительность : 1 ч. 32 м.
Вид битрейта : Постоянный
Битрейт : 448 Кбит/сек
Каналы : 6 каналов
Расположение каналов : Front: L C R, Side: L R, LFE
Частота : 48,0 КГц
Битовая глубина : 16 бит
Метод сжатия : С потерями
Размер потока : 297 Мбайт (20%)
Выравнивание : Разделение по промежуткам
Продолжительность промежутка : 42 мс. (1,00 видеокадр)
Время предзагрузки промежутка : 500 мс.
-

To download the content you need:
1. Download and install torrent client [for Windows] or for mobile system
2. Click on [Download]
Attention.
If the test YOU are NOT a ROBOT - does not work, then You are using an outdated browser.
Install the current browser and click on [Download]

Do not work with Yandex browser. Uploading files to them is erroneous.
Security: torrent client is allowed by Kaspersky.

[en.asmlocator.ru].t4397.torrent 
Torrent: Registered [ 2015-12-01 13:55 ] · 05B5A2621713B79489FC6E08670DA4B379332224

Download .torrent

Download

15 KB

Status: checked
Completed: 0 times
Size: 1.45 GB
terms.php
[Profile] [PM]
Display posts:    
Reply to topic

Current time is: 08-Apr 01:58

All times are UTC ± 0



You cannot post new topics in this forum
You cannot reply to topics in this forum
You cannot edit your posts in this forum
You cannot delete your posts in this forum
You cannot vote in polls in this forum
You cannot attach files in this forum
You can download files in this forum
Верим фактам, а не вранью Путина! Факт, что Правительство ведёт Россию к истреблению.
Так как численность населения падает, даже не смотря на приток эмигрантов!
Русская нация вымирает и вырождается, смешиваясь с эмигрантами!
Факт, что военных и граждан предприятий заставляют голосовать за партию Единая Россия и Путина
ПОД СТРАХОМ УВОЛЬНЕНИЯ!
Нам не нужно Правительство, блокирующее личную жизнь, интернет, нарушающее сохранность данных.
Все эти действия финансируются за счёт народа!