Волшебная лампа / Лампа / The Outing / The Lamp (Том Дэйли / Tom Daley) [1987, США, ужасы, BDRip] AVO (А.Дольский) + Original (Eng)

Reply to topic
DL-List and Torrent activity
Size:  1.46 GB   |    Registered:  4 years 4 months   |    Completed:  0 times

Seeder not seen: Never

 
   
 
 
Author Message

star21 ®

Gender: Female

Longevity: 4 years 5 months

Posts: 551945

Location: Екатеринбург

Post 01-Dec-2015 13:56

[Quote]

-Волшебная лампа / Лампа / The Outing / The Lamp
«They're not coming back»
-- Страна: CША | [imdb]http://www.imdb.com/title/tt0091707[/imdb]
Жанр: ужасы
Год выпуска: 1987
Продолжительность: 01:28:54
Перевод: Авторский (одноголосый закадровый) А.Дольский
Cубтитры: нет
+ Оригинальная звуковая дорожка [English]--Режиссер: Том Дэйли / Tom Daley
Сценарий: Уоррен Чейни / Warren Chaney
Продюсер: Фред Т. Кюнерт / Fred T. Kuehnert
Оператор: Herbert Raditschnig--В ролях:
Дебора Уинтерс (Eve Ferrell / Young Arab Woman / Old Arab Woman), Джеймс Хьюстон (Dr. Wallace), Скотт Бэнкстон (Ted Pinson), Мишель Уоткинс (Faylene), Дэнни Д. Дэниелс (Dr. Theo Bressling), Хэнк Амико (Harley).--Описание:
В антикварный музей попадает новый экспонат — старая лампа, в которой, как вскоре выясняется, заточён не самый дружелюбный джинн. И когда несколько тинейджеров решают провести в этом музее ночь, у этого джинна наконец-то появляется шанс вырваться на свободу.--Бюджет: $2 000 000
Сборы в США: $1 083 395--Мировая премьера: 11 сентября 1987
--Рейтинг
kinopoisk.ru: 6.100 (58)

MPAA: - Детям до 17 лет обязательно присутствие родителей--Качество видео: BD-Rip | исх. « Diablo / / 1080p. MPEG-4 AVC. US. BD-Remux »
Формат видео: AVI ///СОВМЕСТИМО С БЫТОВЫМИ ПЛЕЕРАМИ///→ //SAMPLE//
Видео: 704x400 (1.76:1), 23.976 fps, XviD build 66 ~1923 kbps avg, 0.28 bit/pixel
Аудио#1: 48.0 kHz, AC3 Dolby Digital, 2/0 (L,R) ch, ~192 kbps | AVO
Аудио#2: 48.0 kHz, AC3 Dolby Digital, 2/0 (L,R) ch, ~224 kbps | ENG
Размер: 1496.49 Mb (1/3 DVDR)
--НЕ ПЕРЕЗАЛИВАТЬ НА ДРУГИЕ РЕСУРСЫ РАЗДАЧУ БЕЗ СОГЛАСОВАНИЯ С АВТОРОМ! -
-

MediaInfo

Общее
Полное имя : D:\Фильмы\The Outing.1987.BD-Rip.XviD.1,46Gb.AC3.avi
Формат : AVI
Формат/Информация : Audio Video Interleave
Размер файла : 1,46 Гбайт
Продолжительность : 1 ч. 28 м.
Общий поток : 2353 Кбит/сек
Название фильма : The Outing.1987.BD-Rip.XviD.1,46Gb.AC3
Режиссёр : B.A.T.U.S.A.Y.
Программа кодирования : VirtualDubMod 1.5.10.3 | www.virtualdub-fr.org || (build 2550/release)
Правообладатель : rutracker.org
Видео
Идентификатор : 0
Формат : MPEG-4 Visual
Профиль формата : Advanced Simple@L5
Параметр BVOP формата : 1
Параметр QPel формата : Нет
Параметр GMC формата : Без точки перехода
Параметр матрицы формата : Выборочная
Идентификатор кодека : XVID
Идентификатор кодека/Подсказка : XviD
Продолжительность : 1 ч. 28 м.
Битрейт : 1923 Кбит/сек
Ширина : 704 пикселя
Высота : 400 пикселей
Соотношение сторон : 16:9
Частота кадров : 23,976 кадра/сек
Цветовое пространство : YUV
Субдискретизация насыщенности : 4:2:0
Битовая глубина : 8 бит
Тип развёртки : Прогрессивная
Метод сжатия : С потерями
Бит/(Пиксели*Кадры) : 0.285
Размер потока : 1,19 Гбайт (82%)
Библиотека кодирования : XviD 66
Аудио #1
Идентификатор : 1
Формат : AC-3
Формат/Информация : Audio Coding 3
Расширение режима : CM (complete main)
Параметр Endianness формата : Big
Идентификатор кодека : 2000
Продолжительность : 1 ч. 28 м.
Вид битрейта : Постоянный
Битрейт : 192 Кбит/сек
Каналы : 2 канала
Расположение каналов : Front: L R
Частота : 48,0 КГц
Битовая глубина : 16 бит
Метод сжатия : С потерями
Размер потока : 122 Мбайт (8%)
Выравнивание : Разделение по промежуткам
Продолжительность промежутка : 42 мс. (1,00 видеокадр)
Время предзагрузки промежутка : 500 мс.
Аудио #2
Идентификатор : 2
Формат : AC-3
Формат/Информация : Audio Coding 3
Расширение режима : CM (complete main)
Параметр Endianness формата : Big
Идентификатор кодека : 2000
Продолжительность : 1 ч. 28 м.
Вид битрейта : Постоянный
Битрейт : 224 Кбит/сек
Каналы : 2 канала
Расположение каналов : Front: L R
Частота : 48,0 КГц
Битовая глубина : 16 бит
Метод сжатия : С потерями
Размер потока : 142 Мбайт (10%)
Выравнивание : Разделение по промежуткам
Продолжительность промежутка : 42 мс. (1,00 видеокадр)
Время предзагрузки промежутка : 500 мс.

Скриншот c названием фильма

Скриншоты

To download the content you need:
1. Download and install torrent client [for Windows] or for mobile system
2. Click on [Download]
Attention.
If the test YOU are NOT a ROBOT - does not work, then You are using an outdated browser.
Install the current browser and click on [Download]

Do not work with Yandex browser. Uploading files to them is erroneous.
Security: torrent client is allowed by Kaspersky.

[en.asmlocator.ru].t4392.torrent 
Torrent: Registered [ 2015-12-01 13:55 ] · 138F6378D8B2E872311333591D4557DC0B0072C2

Download .torrent

Download

15 KB

Status: checked
Completed: 0 times
Size: 1.46 GB
terms.php
[Profile] [PM]
Display posts:    
Reply to topic

Current time is: 10-Apr 09:20

All times are UTC ± 0



You cannot post new topics in this forum
You cannot reply to topics in this forum
You cannot edit your posts in this forum
You cannot delete your posts in this forum
You cannot vote in polls in this forum
You cannot attach files in this forum
You can download files in this forum
Верим фактам, а не вранью Путина! Факт, что Правительство ведёт Россию к истреблению.
Так как численность населения падает, даже не смотря на приток эмигрантов!
Русская нация вымирает и вырождается, смешиваясь с эмигрантами!
Факт, что военных и граждан предприятий заставляют голосовать за партию Единая Россия и Путина
ПОД СТРАХОМ УВОЛЬНЕНИЯ!
Нам не нужно Правительство, блокирующее личную жизнь, интернет, нарушающее сохранность данных.
Все эти действия финансируются за счёт народа!