Ночь демонов / Night of the Demons (Кевин Тенни / Kevin Tenney) [1988, США, ужасы, BDRip] AVO (Визгунов)

Reply to topic
DL-List and Torrent activity
Size:  743 MB   |    Registered:  4 years 4 months   |    Completed:  0 times

Seeder not seen: Never

 
   
 
 
Author Message

star21 ®

Gender: Female

Longevity: 4 years 4 months

Posts: 551945

Location: Екатеринбург

Post 01-Dec-2015 13:56

[Quote]

Ночь демонов / Night of the Demons
Страна: США
Жанр: ужасы
Год выпуска: 1988
Продолжительность: 01:30:06
Перевод: Авторский (одноголосый закадровый) - Сергей Визгунов
Cубтитры: нет

Режиссер: Кевин Тенни / Kevin Tenney
В ролях: Билли Галло, Хэл Хэвинс, Амелия Кинкейд, Кэти Подвелл, Линни Куигли, Эллисон Баррон, Элвин Алексис, Харольд Эйер, Карен Эриксон, Лэнс Фентон
Описание: Группа молодых людей в Хэллоуин решает, что школьном маскараде неинтересно и неоригинально. По предложению странной девушки Анджелы компания направляется в большой и мрачный заброшенный дом. Там Анджела предлагает оригинальное развлечение — попытаться увидеть в старом зеркале своё прошлое. В ходе одного из таких сеансов одна из девушек видит в зеркале лицо демона и от испуга роняет зеркало, которое разбивается. Компания даже не подозревает, что этим они освободили из заточения демона. Демон начинает одного за другим убивать молодых людей, а их тела превращать в таких же демонов.
Качество видео:
Формат видео: AVI
Видео: 656x352 (1.86:1), 23.976 fps, XviD build 73 ~1015 kbps avg, 0.18 bit/pixel
Аудио: 48 kHz, MPEG Layer 3, 2 ch, ~128.00 kbps avg

Сравнение

перевод тот же
http://screenshotcomparison.com/comparison/109050

MediaInfo

Общее
Полное имя : H:\Night.of.the.Demons.1988.bdrip_[745]_[teko].avi
Формат : AVI
Формат/Информация : Audio Video Interleave
Размер файла : 743 Мбайт
Продолжительность : 1 ч. 30 м.
Общий поток : 1153 Кбит/сек
Программа кодирования : VirtualDubMod 1.5.10.3 | www.virtualdub-fr.org || (build 2550/release)
Библиотека кодирования : VirtualDubMod build 2550/release
Видео
Идентификатор : 0
Формат : MPEG-4 Visual
Профиль формата : Advanced Simple@L5
Параметр BVOP формата : 2
Параметр QPel формата : Нет
Параметр GMC формата : Без точки перехода
Параметр матрицы формата : Выборочная
Идентификатор кодека : XVID
Идентификатор кодека/Подсказка : XviD
Продолжительность : 1 ч. 30 м.
Битрейт : 1016 Кбит/сек
Ширина : 656 пикселей
Высота : 352 пикселя
Соотношение сторон : 1,85:1
Частота кадров : 23,976 кадра/сек
Цветовое пространство : YUV
Субдискретизация насыщенности : 4:2:0
Битовая глубина : 8 бит
Тип развёртки : Прогрессивная
Метод сжатия : С потерями
Бит/(Пиксели*Кадры) : 0.183
Размер потока : 655 Мбайт (88%)
Библиотека кодирования : XviD 73
Аудио
Идентификатор : 1
Формат : MPEG Audio
Версия формата : Version 1
Профиль формата : Layer 3
Идентификатор кодека : 55
Идентификатор кодека/Подсказка : MP3
Продолжительность : 1 ч. 30 м.
Вид битрейта : Постоянный
Битрейт : 128 Кбит/сек
Каналы : 2 канала
Частота : 48,0 КГц
Метод сжатия : С потерями
Размер потока : 82,5 Мбайт (11%)
Выравнивание : Соединение по промежуткам
Продолжительность промежутка : 42 мс. (1,00 видеокадр)
Время предзагрузки промежутка : 504 мс.
Библиотека кодирования : LAME3.98r
Настройки программы : -m s -V 4 -q 2 -lowpass 17 -b 128
Релиз группы:
-
-

To download the content you need:
1. Download and install torrent client [for Windows] or for mobile system
2. Click on [Download]
Attention.
If the test YOU are NOT a ROBOT - does not work, then You are using an outdated browser.
Install the current browser and click on [Download]

Do not work with Yandex browser. Uploading files to them is erroneous.
Security: torrent client is allowed by Kaspersky.

[en.asmlocator.ru].t4391.torrent 
Torrent: Registered [ 2015-12-01 13:55 ] · 78773D3E17A91C81CBB1F464F6CB9F1CBBBC0486

Download .torrent

Download

15 KB

Status: checked
Completed: 0 times
Size: 743 MB
terms.php
[Profile] [PM]
Display posts:    
Reply to topic

Current time is: 03-Apr 04:59

All times are UTC ± 0



You cannot post new topics in this forum
You cannot reply to topics in this forum
You cannot edit your posts in this forum
You cannot delete your posts in this forum
You cannot vote in polls in this forum
You cannot attach files in this forum
You can download files in this forum
Верим фактам, а не вранью Путина! Факт, что Правительство ведёт Россию к истреблению.
Так как численность населения падает, даже не смотря на приток эмигрантов!
Русская нация вымирает и вырождается, смешиваясь с эмигрантами!
Факт, что военных и граждан предприятий заставляют голосовать за партию Единая Россия и Путина
ПОД СТРАХОМ УВОЛЬНЕНИЯ!
Нам не нужно Правительство, блокирующее личную жизнь, интернет, нарушающее сохранность данных.
Все эти действия финансируются за счёт народа!