Левиафан / Повелитель собак / Leviatán / Monster Dog (Клаудио Фрагассо / Claudio Fragasso) [1984, Испания, США, Пуэрто-Рико, ужасы, HDTVRip] MVO (НТВ+) + Original Eng

Reply to topic
DL-List and Torrent activity
Size:  1.37 GB   |    Registered:  4 years 3 months   |    Completed:  0 times

Seeder not seen: Never

 
   
 
 
Author Message

star21 ®

Gender: Female

Longevity: 4 years 4 months

Posts: 551945

Location: Екатеринбург

Post 01-Dec-2015 13:56

[Quote]

Левиафан / Повелитель собак / Leviatán / Monster Dog
Страна: Испания, США, Пуэрто-Рико
Жанр: ужасы
Год выпуска: 1984
Продолжительность: 01:24:20
Перевод: Профессиональный (многоголосый закадровый) НТВ+
Cубтитры: нет
Оригинальная аудиодорожка: английский
Режиссер: Клаудио Фрагассо / Claudio Fragasso
В ролях: Элис Купер / Alice Cooper, Виктория Вера / Victoria Vera, Карлос Сантурио / Carlos Santurio, Мария Хосе Сарса / Maria Jose Sarsa, Пепита Джеймс / Pepita James, Эмилио Линдер / Emilio Linder, Рикардо Паласиос / Ricardo Palacios, Луис Малуэнда / Luis Maluenda, Барта Барри / Barta Barri, Чарли Браво / Charly Bravo, Фернандо Конде / Fernando Conde, Фернандо Баэса / Fernando Baeza, Нино Бастида / Nino Bastida
Описание: Известный рок-музыкант Винсент Рейвен готовится к съёмкам нового клипа и отправляется в глухую провинцию, где провел своё детство, и где с его отцом произошла трагедия. Тот страдал каким-то заболеванием, от которого выл на луну и не спал по ночам во время полнолуния. Однажды местные жители обнаружили его рядом с задранной овцой и посчитали это весьма убедительным доказательством оборотничества. На глазах у маленького Винса отца убили, после чего мальчика забрали жить в большой город. И вот теперь, через много лет, он возвращается в эти жуткие места, населённые суеверными людишками, чтобы вспомнить прошлое и заодно снять новый клип. В это время несколько человек гибнут в результате нападения одичалых собак...
Доп. информация: Видеоряд спЁрт из этой раздачи.
Сэмпл: http://multi-up.com/1060396
Качество видео: HDTVRip
Формат видео: AVI
Видео: MPEG4, XviD, 720x432 (1.667), 23.976 fps, 1 930 Kbps (0.259 bit/pixel)
Аудио: AC-3, 48.0 KHz, 2 ch, 192 Kbps, CBR - русский
Аудио 2: AC-3, 48.0 KHz, 2 ch, 192 Kbps, CBR - английский

MediaInfo

Общее
Полное имя : K:\МОИ РАЗДАЧИ\Повелитель собак.avi
Формат : AVI
Формат/Информация : Audio Video Interleave
Размер файла : 1,37 Гбайт
Продолжительность : 1 ч. 24 м.
Общий поток : 2327 Кбит/сек
Название фильма : Левиафан / Повелитель собак / Leviatan / Monster Dog (1984)
Видео
Идентификатор : 0
Формат : MPEG-4 Visual
Профиль формата : Advanced Simple@L5
Параметр BVOP формата : 2
Параметр QPel формата : Нет
Параметр GMC формата : Без точки перехода
Параметр матрицы формата : Default (H.263)
Идентификатор кодека : XVID
Идентификатор кодека/Подсказка : XviD
Продолжительность : 1 ч. 24 м.
Битрейт : 1929 Кбит/сек
Ширина : 720 пикселей
Высота : 432 пикселя
Соотношение сторон : 5:3
Частота кадров : 23,976 кадра/сек
Цветовое пространство : YUV
Субдискретизация насыщенности : 4:2:0
Битовая глубина : 8 бит
Тип развёртки : Прогрессивная
Метод сжатия : С потерями
Бит/(Пиксели*Кадры) : 0.259
Размер потока : 1,14 Гбайт (83%)
Библиотека кодирования : XviD 1.2.1 (UTC 2008-12-04)
Аудио #1
Идентификатор : 1
Формат : AC-3
Формат/Информация : Audio Coding 3
Расширение режима : CM (complete main)
Параметр Endianness формата : Big
Идентификатор кодека : 2000
Продолжительность : 1 ч. 24 м.
Вид битрейта : Постоянный
Битрейт : 192 Кбит/сек
Каналы : 2 канала
Расположение каналов : Front: L R
Частота : 48,0 КГц
Метод сжатия : С потерями
Размер потока : 116 Мбайт (8%)
Выравнивание : Разделение по промежуткам
Продолжительность промежутка : 42 мс. (1,00 видеокадр)
Время предзагрузки промежутка : 500 мс.
Заголовок : Профессиональный (многоголосый закадровый) AMC
Аудио #2
Идентификатор : 2
Формат : AC-3
Формат/Информация : Audio Coding 3
Расширение режима : CM (complete main)
Параметр Endianness формата : Big
Идентификатор кодека : 2000
Продолжительность : 1 ч. 24 м.
Вид битрейта : Постоянный
Битрейт : 192 Кбит/сек
Каналы : 2 канала
Расположение каналов : Front: L R
Частота : 48,0 КГц
Метод сжатия : С потерями
Размер потока : 116 Мбайт (8%)
Выравнивание : Разделение по промежуткам
Продолжительность промежутка : 42 мс. (1,00 видеокадр)
Время предзагрузки промежутка : 500 мс.
Заголовок : Английский

Скриншоты


To download the content you need:
1. Download and install torrent client [for Windows] or for mobile system
2. Click on [Download]
Attention.
If the test YOU are NOT a ROBOT - does not work, then You are using an outdated browser.
Install the current browser and click on [Download]

Do not work with Yandex browser. Uploading files to them is erroneous.
Security: torrent client is allowed by Kaspersky.

[en.asmlocator.ru].t4389.torrent 
Torrent: Registered [ 2015-12-01 13:55 ] · DFE461FE188E5051858CD2CC3DF6FBA53557B2A5

Download .torrent

Download

14 KB

Status: checked
Completed: 0 times
Size: 1.37 GB
terms.php
[Profile] [PM]
Display posts:    
Reply to topic

Current time is: 29-Mar 17:24

All times are UTC ± 0



You cannot post new topics in this forum
You cannot reply to topics in this forum
You cannot edit your posts in this forum
You cannot delete your posts in this forum
You cannot vote in polls in this forum
You cannot attach files in this forum
You can download files in this forum
Верим фактам, а не вранью Путина! Факт, что Правительство ведёт Россию к истреблению.
Так как численность населения падает, даже не смотря на приток эмигрантов!
Русская нация вымирает и вырождается, смешиваясь с эмигрантами!
Факт, что военных и граждан предприятий заставляют голосовать за партию Единая Россия и Путина
ПОД СТРАХОМ УВОЛЬНЕНИЯ!
Нам не нужно Правительство, блокирующее личную жизнь, интернет, нарушающее сохранность данных.
Все эти действия финансируются за счёт народа!