Далёкие Шатры / The Far Pavilions (Петер Даффелл / Peter Duffell) [1984, США, Великобритания, исторический, драма, экранизация, DVDRip] DVO (НТВ)

Reply to topic
DL-List and Torrent activity
Size:  4.35 GB   |    Registered:  4 years 3 months   |    Completed:  6 times

Seeder not seen: 5 months 9 days

 
   
 
 
Author Message

star21 ®

Gender: Female

Longevity: 4 years 4 months

Posts: 551945

Location: Екатеринбург

Post 01-Dec-2015 13:56

[Quote]

Далёкие Шатры / The Far Pavilions Страна: Великобритания, США
Жанр: исторический, драма, экранизация
Год выпуска: 1984
Продолжительность: 02:39:01 + 02:35:00 (5 ч. 14 мин.)
Перевод: Профессиональный (двухголосый закадровый) НТВ
Текст читали: Ольга Кузнецова, Александр Клюквин
Cубтитры: нет
Оригинальная аудиодорожка: нет
Режиссер: Петер Даффелл / Peter Duffell
В ролях: Бен Кросс, Эми Ирвинг, Кристофер Ли, Омар Шариф, Бенедикт Тейлор, Саид Джаффри, Россано Брацци, Роберт Харди, Парикшит Сахни, Джон Гилгуд, Дженнифер Кендал, Фелисити Дин, Питер Арне, Катерина Боратто, Майкл Кокрейн, Руперт Эверетт, Клайв Фрэнсис, Руперт Фрейзер, Уильям Гонт, Танвир Гани, Константин Грегори, Арт Малик, Мэри Пич, Энтони Шарп, Джереми Синден, Джеймс Снелл, Гога Капур, Рави Бехл, Рави Валеча, Рэма Видж, Бхарти Деви, Бхушан Тивари, Правин Паул, Джонни Сетхи, Ажит Синх, Теджа Сапру, Джей Деви
Описание: По одноимённому историческому роману-бестселлеру английской писательницы Мэри Маргарет Кей. Колониальная Индия, 1870-е годы. Войска Английской короны безуспешно пытаются подавить очередное восстание сипаев. Эта история началась на горном перевале в Гималаях, где у известного ученого Хилари Пелам-Мартина и его жены Изабеллы родился сын Аштон. Мальчика ждала совершенно необыкновенная судьба. Рано потеряв родителей, он остался на руках у своей кормилицы, простой индийской женщины, которая сумела уберечь его во время кровавого восстания сипаев. В своих странствиях они прошли через всю Индию и нашли приют в северном княжестве Гулкоте. Там, среди богатства и роскоши, Аш столкнулся с коварством и вероломством, но также обрел дружбу и любовь на всю свою жизнь. Английский аристократ по рождению, индийский мальчишка по воспитанию, он всегда верил, что счастье ждет его в зеленой долине за заснеженными вершинами гор под названием Дур-Хайма, что означает Далекие Шатры...
Доп. информация: Полная версия. Собственные рипы (2), без разбивки на серии. Места без перевода в DVDRip_1: 32:26-33:34, 58:26-59:30 и DVDRip_2: 1:14:43-1:17:06, 1:28:18-1:29:43 были любезно переведены smip2010!, она же сделала русские сабы, за что её большое спасибо! По русским сабам была выполнена озвучка, за что огромное спасибо Kolobroad!
Сэмпл: http://multi-up.com/1060405
Качество видео: DVDRip
Спасибо dvdbox за
Формат видео: AVI
Видео: XviD, 688x528 (4:3), 25.000 fps, ~ 1800 kbps avg
Аудио: Russian MPEG Layer 3, 48 kHz, 2 ch, 192.00 kbps avg

MediaInfo

General
Complete name : F:\The Far Pavilions_1984.DVDRip\The Far Pavilions.1984.DVDRip.NTV.DVO_1.avi
Format : AVI
Format/Info : Audio Video Interleave
Format profile : OpenDML
File size : 2.17 GiB
Duration : 2h 39mn
Overall bit rate : 1 950 Kbps
Writing application : VirtualDubModRus 1.5.10.2 (build 2542/release)
Writing library : VirtualDubMod build 2542/release
Video
ID : 0
Format : MPEG-4 Visual
Format profile : Advanced Simple@L5
Format settings, BVOP : 1
Format settings, QPel : No
Format settings, GMC : No warppoints
Format settings, Matrix : Default (MPEG)
Codec ID : XVID
Codec ID/Hint : XviD
Duration : 2h 39mn
Bit rate : 1 745 Kbps
Width : 688 pixels
Height : 528 pixels
Display aspect ratio : 4:3
Frame rate : 25.000 fps
Color space : YUV
Chroma subsampling : 4:2:0
Bit depth : 8 bits
Scan type : Progressive
Compression mode : Lossy
Bits/(Pixel*Frame) : 0.192
Stream size : 1.94 GiB (90%)
Writing library : XviD 73
Audio
ID : 1
Format : MPEG Audio
Format version : Version 1
Format profile : Layer 3
Mode : Joint stereo
Mode extension : MS Stereo
Codec ID : 55
Codec ID/Hint : MP3
Duration : 2h 39mn
Bit rate mode : Constant
Bit rate : 192 Kbps
Channel(s) : 2 channels
Sampling rate : 48.0 KHz
Compression mode : Lossy
Stream size : 218 MiB (10%)
Alignment : Aligned on interleaves
Interleave, duration : 40 ms (1.00 video frame)
Interleave, preload duratio : 504 ms
======================================================
General
Complete name : F:\The Far Pavilions_1984.DVDRip\The Far Pavilions.1984.DVDRip.NTV.DVO_2.avi
Format : AVI
Format/Info : Audio Video Interleave
Format profile : OpenDML
File size : 2.18 GiB
Duration : 2h 35mn
Overall bit rate : 2 017 Kbps
Writing application : VirtualDubModRus 1.5.10.2 (build 2542/release)
Writing library : VirtualDubMod build 2542/release
Video
ID : 0
Format : MPEG-4 Visual
Format profile : Advanced Simple@L5
Format settings, BVOP : 1
Format settings, QPel : No
Format settings, GMC : No warppoints
Format settings, Matrix : Default (MPEG)
Codec ID : XVID
Codec ID/Hint : XviD
Duration : 2h 35mn
Bit rate : 1 812 Kbps
Width : 688 pixels
Height : 528 pixels
Display aspect ratio : 4:3
Frame rate : 25.000 fps
Color space : YUV
Chroma subsampling : 4:2:0
Bit depth : 8 bits
Scan type : Progressive
Compression mode : Lossy
Bits/(Pixel*Frame) : 0.200
Stream size : 1.96 GiB (90%)
Writing library : XviD 73
Audio
ID : 1
Format : MPEG Audio
Format version : Version 1
Format profile : Layer 3
Mode : Joint stereo
Mode extension : MS Stereo
Codec ID : 55
Codec ID/Hint : MP3
Duration : 2h 35mn
Bit rate mode : Constant
Bit rate : 192 Kbps
Channel(s) : 2 channels
Sampling rate : 48.0 KHz
Compression mode : Lossy
Stream size : 213 MiB (10%)
Alignment : Aligned on interleaves
Interleave, duration : 40 ms (1.00 video frame)
Interleave, preload duratio : 504 ms

Скриншоты

To download the content you need:
1. Download and install torrent client [for Windows] or for mobile system
2. Click on [Download]
Attention.
If the test YOU are NOT a ROBOT - does not work, then You are using an outdated browser.
Install the current browser and click on [Download]

Do not work with Yandex browser. Uploading files to them is erroneous.
Security: torrent client is allowed by Kaspersky.

[en.asmlocator.ru].t4388.torrent 
Torrent: Registered [ 2015-12-01 13:55 ] · D58D49ADDE815701567FD02E46ADECBCCDE6B040

Download .torrent

Download

22 KB

Status: checked
Completed: 6 times
Size: 4.35 GB
terms.php
[Profile] [PM]
Display posts:    
Reply to topic

Current time is: 28-Mar 23:38

All times are UTC ± 0



You cannot post new topics in this forum
You cannot reply to topics in this forum
You cannot edit your posts in this forum
You cannot delete your posts in this forum
You cannot vote in polls in this forum
You cannot attach files in this forum
You can download files in this forum
Верим фактам, а не вранью Путина! Факт, что Правительство ведёт Россию к истреблению.
Так как численность населения падает, даже не смотря на приток эмигрантов!
Русская нация вымирает и вырождается, смешиваясь с эмигрантами!
Факт, что военных и граждан предприятий заставляют голосовать за партию Единая Россия и Путина
ПОД СТРАХОМ УВОЛЬНЕНИЯ!
Нам не нужно Правительство, блокирующее личную жизнь, интернет, нарушающее сохранность данных.
Все эти действия финансируются за счёт народа!