Говорун / Fast Talking (Кен Кэмерон / Ken Cameron) [1984, Австралия, Детский, семейный, драма, VHSRip] AVO (Алексеев)

Reply to topic
DL-List and Torrent activity
Size:  1.37 GB   |    Registered:  4 years 4 months   |    Completed:  0 times

Seeder not seen: Never

 
   
 
 
Author Message

star21 ®

Gender: Female

Longevity: 4 years 4 months

Posts: 551945

Location: Екатеринбург

Post 01-Dec-2015 13:56

[Quote]

Говорун / Fast Talking
Страна: Австралия
Жанр: Детский, семейный, драма
Год выпуска: 1984
Продолжительность: 01:29:32
Перевод: Авторский (одноголосый закадровый) Алексеев
Cубтитры: нет
Режиссер: Кен Кэмерон / Ken Cameron
В ролях: Род Зуаник, Стив Бисли /Steve Bisley/, Трэйси Мэнн, Питер Хехир /Peter Hehir/, Деннис Мур, Тони Эллайлис, Крис Трасуэлл, Гэйл Суини, Джули МакГрегор, Гэрри Кук, Питер Коллингвуд
Описание: Род Зуаник в роли бесшабашного хулиганистого панка, отказывающегося слушаться кого-либо. Учителя ничего не могут с ним поделать, а родители тем более, так как семья не из благополучных. За словом он в карман не лезет и "забить баки" может любому. Вроде бы картина задумана так, чтобы вызвать у зрителя сочувствие к этому мошеннику, для чего нам дают понять, что у парня нет никакой надежды на светлое будущее, но у меня частенько возникало желание как следует врезать этому говоруну. (Иванов М.)
Доп. информация: Благодарность:
Fikaloid - за дорожку с переводом AVO
xelon2006 - за синхрон дорожки

Релиз
Сэмпл: https://yadi.sk/i/1dzotLXVi9zDb
Качество видео: VHSRip
Формат видео: AVI
Видео: 496x368 (1.35:1), 25 fps, XviD build 47 ~1988 kbps avg, 0.44 bit/pixel
Аудио: 48 kHz, AC3 Dolby Digital, 2/0 (L,R) ch, ~192 kbps

MediaInfo

Говорун - Fast.Talking [by Edich2].avi
Format : AVI
Format/Info : Audio Video Interleave
File size : 1.37 GiB
Duration : 1h 29mn
Overall bit rate : 2 190 Kbps
Movie name : Говорун - Fast.Talking [by Edich2]
Director : by Edich2
Writing application : VirtualDubMod 1.5.4.1 (build 2178/release)
Comment : RuTracker.org
Video
ID : 0
Format : MPEG-4 Visual
Format profile : Advanced Simple@L5
Format settings, BVOP : 1
Format settings, QPel : No
Format settings, GMC : No warppoints
Format settings, Matrix : Custom
Codec ID : XVID
Codec ID/Hint : XviD
Duration : 1h 29mn
Bit rate : 1 988 Kbps
Width : 496 pixels
Height : 368 pixels
Display aspect ratio : 4:3
Frame rate : 25.000 fps
Color space : YUV
Chroma subsampling : 4:2:0
Bit depth : 8 bits
Scan type : Progressive
Compression mode : Lossy
Bits/(Pixel*Frame) : 0.436
Stream size : 1.24 GiB (91%)
Writing library : XviD 1.2.0.dev47 (UTC 2006-11-01)
Audio
ID : 1
Format : AC-3
Format/Info : Audio Coding 3
Mode extension : CM (complete main)
Format settings, Endianness : Big
Codec ID : 2000
Duration : 1h 29mn
Bit rate mode : Constant
Bit rate : 192 Kbps
Channel(s) : 2 channels
Channel positions : Front: L R
Sampling rate : 48.0 KHz
Bit depth : 16 bits
Compression mode : Lossy
Stream size : 123 MiB (9%)
Alignment : Aligned on interleaves
Interleave, duration : 40 ms (1.00 video frame)
Interleave, preload duration : 512 ms

Скриншоты


To download the content you need:
1. Download and install torrent client [for Windows] or for mobile system
2. Click on [Download]
Attention.
If the test YOU are NOT a ROBOT - does not work, then You are using an outdated browser.
Install the current browser and click on [Download]

Do not work with Yandex browser. Uploading files to them is erroneous.
Security: torrent client is allowed by Kaspersky.

[en.asmlocator.ru].t4386.torrent 
Torrent: Registered [ 2015-12-01 13:55 ] · 7FB16A1C58066C4533A1AB8266926997DCDEC50F

Download .torrent

Download

14 KB

Status: checked
Completed: 0 times
Size: 1.37 GB
terms.php
[Profile] [PM]
Display posts:    
Reply to topic

Current time is: 03-Apr 04:47

All times are UTC ± 0



You cannot post new topics in this forum
You cannot reply to topics in this forum
You cannot edit your posts in this forum
You cannot delete your posts in this forum
You cannot vote in polls in this forum
You cannot attach files in this forum
You can download files in this forum
Верим фактам, а не вранью Путина! Факт, что Правительство ведёт Россию к истреблению.
Так как численность населения падает, даже не смотря на приток эмигрантов!
Русская нация вымирает и вырождается, смешиваясь с эмигрантами!
Факт, что военных и граждан предприятий заставляют голосовать за партию Единая Россия и Путина
ПОД СТРАХОМ УВОЛЬНЕНИЯ!
Нам не нужно Правительство, блокирующее личную жизнь, интернет, нарушающее сохранность данных.
Все эти действия финансируются за счёт народа!