Комики / Маленькие комедии / Забавные истории / Le comiche (Нери Паренти / Neri Parenti) [1990, Италия, комедия, DVDRip] DVO (НТВ) + AVO (Владимир Штейн) + Original Ita

Reply to topic
DL-List and Torrent activity
Size:  1.6 GB   |    Registered:  4 years 3 months   |    Completed:  0 times

Seeder not seen: 2 years 3 months

 
   
 
 
Author Message

star21 ®

Gender: Female

Longevity: 4 years 4 months

Posts: 551945

Location: Екатеринбург

Post 01-Dec-2015 13:56

[Quote]

Комики / Маленькие комедии / Забавные истории / Le comiche
Страна: Италия
Жанр: комедия
Год выпуска: 1990
Продолжительность: 01:26:34
Перевод 1: Профессиональный (двухголосый закадровый) НТВ
Перевод 2: Авторский (одноголосый закадровый) Владимир Штейн
Cубтитры: нет
Оригинальная аудиодорожка: итальянский отдельным файлом
Режиссер: Нери Паренти / Neri Parenti
В ролях: Ренато Поццетто, Паоло Вилладжо, Энцо Каннавале, Джанфабио Боско, Фабио Траверса, Алессандра Казелла, Сальваторе Боргезе, Бенедетта Альтиссими, Эннио Антонелли, Андреа Бельфйоре...
Описание: Шесть новелл, рисующих несколько комичных ситуаций: во время венчания молодой пары в церковь приезжают два маляра-недотепы и все переворачивают там вверх дном; два автомеханика портят жизнь владельцам авто своими выкрутасами; парочка коммивояжеров предлагают товар хозяину гостиницы, а в результате вынуждены возмещать причиненный ими ущерб; в похоронном бюро служащие приводят в состояние полной абстракции родственников покойных; в выходной день приятели устраивают переполох на пляже; два дружка на свое несчастье оказываются двойниками настоящих мафиози…
Доп. информация: за перевод НТВ спасибо Sergeant Pepper.
Сэмпл: http://multi-up.com/1060595
Качество видео: DVDRip
Формат видео: AVI
Видео: 720x432 (1.67:1), 25 fps, XviD MPEG-4 ~2061 kbps avg, 0.27 bit/pixel
Аудио 1: 48 kHz, AC3 Dolby Digital, 2/0 (L,R) ch, ~192 kbps НТВ
Аудио 2: 44.1 kHz, AC3 Dolby Digital, 2/0 (L,R) ch, ~192 kbps Владимир Штейн
Аудио 3: 48 kHz, AC3 Dolby Digital, 2/0 (L,R) ch, ~192 kbps Ita отдельным файлом

MediaInfo

General
Complete name : D:\Le Comiche\Le Comiche.avi
Format : AVI
Format/Info : Audio Video Interleave
File size : 1.49 GiB
Duration : 1h 26mn
Overall bit rate : 2 460 Kbps
Writing application : VirtualDubMod 1.5.10.3 (build 2550/release)
Writing library : VirtualDubMod build 2550/release
Video
ID : 0
Format : MPEG-4 Visual
Format profile : Advanced Simple@L5
Format settings, BVOP : 2
Format settings, QPel : No
Format settings, GMC : No warppoints
Format settings, Matrix : Default (H.263)
Codec ID : XVID
Codec ID/Hint : XviD
Duration : 1h 26mn
Bit rate : 2 061 Kbps
Width : 720 pixels
Height : 432 pixels
Display aspect ratio : 5:3
Frame rate : 25.000 fps
Color space : YUV
Chroma subsampling : 4:2:0
Bit depth : 8 bits
Scan type : Progressive
Compression mode : Lossy
Bits/(Pixel*Frame) : 0.265
Stream size : 1.25 GiB (84%)
Writing library : XviD 1.2.1 (UTC 2008-12-04)
Audio #1
ID : 1
Format : AC-3
Format/Info : Audio Coding 3
Mode extension : CM (complete main)
Format settings, Endianness : Big
Codec ID : 2000
Duration : 1h 26mn
Bit rate mode : Constant
Bit rate : 192 Kbps
Channel(s) : 2 channels
Channel positions : Front: L R
Sampling rate : 48.0 KHz
Compression mode : Lossy
Stream size : 119 MiB (8%)
Alignment : Split accross interleaves
Interleave, duration : 40 ms (1.00 video frame)
Interleave, preload duratio : 500 ms
Audio #2
ID : 2
Format : AC-3
Format/Info : Audio Coding 3
Mode extension : CM (complete main)
Format settings, Endianness : Big
Codec ID : 2000
Duration : 1h 26mn
Bit rate mode : Constant
Bit rate : 192 Kbps
Channel(s) : 2 channels
Channel positions : Front: L R
Sampling rate : 44.1 KHz
Compression mode : Lossy
Stream size : 119 MiB (8%)
Alignment : Split accross interleaves
Interleave, duration : 40 ms (1.00 video frame)
Interleave, preload duratio : 500 ms

Скриншоты

To download the content you need:
1. Download and install torrent client [for Windows] or for mobile system
2. Click on [Download]
Attention.
If the test YOU are NOT a ROBOT - does not work, then You are using an outdated browser.
Install the current browser and click on [Download]

Do not work with Yandex browser. Uploading files to them is erroneous.
Security: torrent client is allowed by Kaspersky.

[en.asmlocator.ru].t4385.torrent 
Torrent: Registered [ 2015-12-01 13:55 ] · A199233857B282A9D29F56AFD1B9536143DBC678

Download .torrent

Download

17 KB

Status: checked
Completed: 0 times
Size: 1.6 GB
terms.php
[Profile] [PM]
Display posts:    
Reply to topic

Current time is: 29-Mar 17:20

All times are UTC ± 0



You cannot post new topics in this forum
You cannot reply to topics in this forum
You cannot edit your posts in this forum
You cannot delete your posts in this forum
You cannot vote in polls in this forum
You cannot attach files in this forum
You can download files in this forum
Верим фактам, а не вранью Путина! Факт, что Правительство ведёт Россию к истреблению.
Так как численность населения падает, даже не смотря на приток эмигрантов!
Русская нация вымирает и вырождается, смешиваясь с эмигрантами!
Факт, что военных и граждан предприятий заставляют голосовать за партию Единая Россия и Путина
ПОД СТРАХОМ УВОЛЬНЕНИЯ!
Нам не нужно Правительство, блокирующее личную жизнь, интернет, нарушающее сохранность данных.
Все эти действия финансируются за счёт народа!