Я - безумец / Я - сумасшедший / Попасть в переплет / Безумная / I, madman (Тибор Такач / Tibor Takacs) [1989, США, Триллер, ужасы, BDRip-AVC] DVO (НТВ+) + AVO (Дохалов)+ Sub eng + Original eng

Reply to topic
DL-List and Torrent activity
Size:  2.11 GB   |    Registered:  4 years 4 months   |    Completed:  0 times

Seeder not seen: Never

 
   
 
 
Author Message

star21 ®

Gender: Female

Longevity: 4 years 4 months

Posts: 551945

Location: Екатеринбург

Post 01-Dec-2015 13:55

[Quote]

-Я сумасшедший / Я безумец / Безумная / I, Madman Страна: США
Жанр: ужасы, триллер
Год выпуска: 1989
Продолжительность: 01:29:14-Перевод: Профессиональный (двухголосый закадровый) "НТВ+"
Перевод: Авторский (одноголосый закадровый) | В.Дохалов|
Cубтитры: английские
Оригинальная аудиодорожка: английский-Режиссер: Тибор Такач / Tibor Takacs-В ролях-Дженни Райт, Клэйтон Ронер, Рэндолл Уильям Кук, Стефани Ходж, Мишель Джордан, Вэнс Валенсия, Мэри Болдуин, Раф Назарио, Боб Фрэнк, Брюс Вагнер-Описание-Молодая женщина Вирджиния захвачена чтением романа ужасов. В мыслях она отождествляет себя с героиней книги, которую преследует сгорающий от страсти маньяк. Литературный монстр неожиданно прорывается в реальный мир, совершая убийства, ранее описанные на страницах романа. И главная его цель - Вирджиния.-Качество видео: BDRip
Исходное видео:-Контейнер: MKV-Видео: AVC, 864х468 (1,85:1), ~2700 kbps, 23.976 fps,
Аудио: AC-3, 192 kbps, Dolby Digital, 2 (L,R) ch, 48 KHz |DVO|
Аудио: AC-3, 192 kbps, Dolby Digital, 2 (L,R) ch, 48 KHz |AVO|
Аудио: AC-3, 192 kbps, Dolby Digital, 2 (L,R) ch, 48 KHz |оригинал|
Формат субтитров: softsub (SRT)--

MediaInfo

x264

VIDEO ENCODING
------------------------------
Encoding video to: C:\Temp\0038.264
x264 Q19.3 864x468 23.976fps (129768 frames)
avs4x26x.exe: -L x264_64.exe --crf 19.3 --preset slow --level 4.1 --ref 16 --aq-mode 3 --deblock -3:-2 --merange 64 --bframes 16 --trellis 2 --subme 11 --no-mbtree --colorprim bt709 --transfer bt709 --colormatrix bt709 --vbv-bufsize 14000 --vbv-maxrate 14000 --partitions p8x8,b8x8,i4x4,i8x8 --zones 124713,129768,q=35 --sar 1:1 --output "C:\Temp\0038.264" "C:\Temp\0038.avs"
raw [info]: 864x468p 1:1 @ 24000/1001 fps (cfr)
x264 [info]: using SAR=1/1
x264 [info]: using cpu capabilities: MMX2 SSE2Fast LZCNT
x264 [info]: profile High, level 4.1
x264 [info]: frame I:782 Avg QP:17.72 size: 52978
x264 [info]: frame P:22250 Avg QP:19.04 size: 26064
x264 [info]: frame B:106736 Avg QP:20.62 size: 11729
x264 [info]: consecutive B-frames: 1.0% 0.7% 2.6% 6.8% 11.9% 54.7% 6.3% 2.2% 2.5% 2.0% 2.2% 2.2% 1.3% 0.8% 0.8% 0.4% 1.5%
x264 [info]: mb I I16..4: 2.8% 84.6% 12.6%
x264 [info]: mb P I16..4: 0.1% 14.5% 1.5% P16..4: 26.5% 36.5% 15.3% 0.0% 0.0% skip: 5.5%
x264 [info]: mb B I16..4: 0.0% 1.7% 0.2% B16..8: 40.6% 23.3% 5.5% direct: 6.8% skip:21.9% L0:47.9% L1:44.5% BI: 7.5%
x264 [info]: 8x8 transform intra:88.9% inter:58.7%
x264 [info]: direct mvs spatial:99.3% temporal:0.7%
x264 [info]: coded y,uvDC,uvAC intra: 95.1% 70.1% 32.3% inter: 40.5% 19.2% 0.4%
x264 [info]: i16 v,h,dc,p: 38% 15% 17% 30%
x264 [info]: i8 v,h,dc,ddl,ddr,vr,hd,vl,hu: 11% 6% 12% 11% 14% 13% 12% 11% 11%
x264 [info]: i4 v,h,dc,ddl,ddr,vr,hd,vl,hu: 43% 4% 4% 6% 10% 10% 8% 8% 6%
x264 [info]: i8c dc,h,v,p: 32% 32% 21% 15%
x264 [info]: Weighted P-Frames: Y:10.7% UV:5.8%
x264 [info]: ref P L0: 36.6% 9.2% 17.4% 7.5% 6.4% 4.7% 4.3% 2.3% 2.2% 1.8% 1.7% 1.4% 1.4% 1.2% 1.2% 0.8%
x264 [info]: ref B L0: 56.9% 14.4% 8.6% 4.6% 3.5% 2.9% 2.4% 1.4% 1.2% 1.1% 0.9% 0.9% 0.8% 0.4% 0.2%
x264 [info]: ref B L1: 88.1% 11.9%
x264 [info]: kb/s:2768.85
Полное имя : J:\Раздачи\I,Madman_1989_BDRip.(SD-AVC)_cw.mkv
Формат : Matroska
Версия формата : Version 2
Размер файла : 2,11 Гбайт
Продолжительность : 1 ч. 30 м.
Общий поток : 3343 Кбит/сек
Название фильма : Я сумасшедший / Я безумец / Безумная / I, Madman_1989 (RGTru)
Дата кодирования : UTC 2015-07-30 12:45:35
Программа кодирования : mkvmerge v7.8.0 ('River Man') 32bit built on Apr 3 2015 12:11:22
Библиотека кодирования : libebml v1.3.1 + libmatroska v1.4.2
Видео
Идентификатор : 1
Формат : AVC
Формат/Информация : Advanced Video Codec
Профиль формата : High@L4.1
Параметр CABAC формата : Да
Параметр ReFrames формата : 16 кадров
Идентификатор кодека : V_MPEG4/ISO/AVC
Продолжительность : 1 ч. 30 м.
Битрейт : 2700 Кбит/сек
Ширина : 864 пикселя
Высота : 468 пикселей
Соотношение сторон : 1,85:1
Режим частоты кадров : Постоянный
Частота кадров : 23,976 кадра/сек
Цветовое пространство : YUV
Субдискретизация насыщенности : 4:2:0
Битовая глубина : 8 бит
Тип развёртки : Прогрессивная
Бит/(Пиксели*Кадры) : 0.279
Размер потока : 1,70 Гбайт (81%)
Заголовок : I,Madman_1989_BDRip.(SD-AVC)_cw
Библиотека кодирования : x264 core 146 r2538 121396c
Настройки программы : cabac=1 / ref=16 / deblock=1:-3:-2 / analyse=0x3:0x113 / me=umh / subme=11 / psy=1 / psy_rd=1.00:0.00 / mixed_ref=1 / me_range=64 / chroma_me=1 / trellis=2 / 8x8dct=1 / cqm=0 / deadzone=21,11 / fast_pskip=1 / chroma_qp_offset=-2 / threads=4 / lookahead_threads=1 / sliced_threads=0 / nr=0 / decimate=1 / interlaced=0 / bluray_compat=0 / constrained_intra=0 / bframes=16 / b_pyramid=2 / b_adapt=2 / b_bias=0 / direct=3 / weightb=1 / open_gop=0 / weightp=2 / keyint=250 / keyint_min=23 / scenecut=40 / intra_refresh=0 / rc_lookahead=50 / rc=crf / mbtree=0 / crf=19.3 / qcomp=0.60 / qpmin=0 / qpmax=69 / qpstep=4 / vbv_maxrate=14000 / vbv_bufsize=14000 / crf_max=0.0 / nal_hrd=none / filler=0 / ip_ratio=1.40 / pb_ratio=1.30 / aq=3:1.00 / zones=124713,129768,q=35
Язык : English
Default : Да
Forced : Нет
Цветовой диапазон : Limited
Основные цвета : BT.709
Характеристики трансфера : BT.709
Коэффициенты матрицы : BT.709
Аудио #1
Идентификатор : 2
Формат : AC-3
Формат/Информация : Audio Coding 3
Расширение режима : CM (complete main)
Параметр Endianness формата : Big
Идентификатор кодека : A_AC3
Продолжительность : 1 ч. 30 м.
Вид битрейта : Постоянный
Битрейт : 192 Кбит/сек
Каналы : 2 канала
Расположение каналов : Front: L R
Частота : 48,0 КГц
Битовая глубина : 16 бит
Метод сжатия : С потерями
Размер потока : 124 Мбайт (6%)
Заголовок : DVO
Язык : Russian
Default : Да
Forced : Нет
Аудио #2
Идентификатор : 3
Формат : AC-3
Формат/Информация : Audio Coding 3
Расширение режима : CM (complete main)
Параметр Endianness формата : Big
Идентификатор кодека : A_AC3
Продолжительность : 1 ч. 30 м.
Вид битрейта : Постоянный
Битрейт : 192 Кбит/сек
Каналы : 2 канала
Расположение каналов : Front: L R
Частота : 48,0 КГц
Битовая глубина : 16 бит
Метод сжатия : С потерями
Размер потока : 124 Мбайт (6%)
Заголовок : В.Дохалов
Default : Нет
Forced : Нет
Аудио #3
Идентификатор : 4
Формат : AC-3
Формат/Информация : Audio Coding 3
Расширение режима : CM (complete main)
Параметр Endianness формата : Big
Идентификатор кодека : A_AC3
Продолжительность : 1 ч. 30 м.
Вид битрейта : Постоянный
Битрейт : 192 Кбит/сек
Каналы : 2 канала
Расположение каналов : Front: L R
Частота : 48,0 КГц
Битовая глубина : 16 бит
Метод сжатия : С потерями
Размер потока : 124 Мбайт (6%)
Заголовок : Original
Язык : English
Default : Нет
Forced : Нет
Текст
Идентификатор : 5
Формат : UTF-8
Идентификатор кодека : S_TEXT/UTF8
Идентификатор кодека/Информация : UTF-8 Plain Text
Язык : English
Default : Нет
Forced : Нет

Скриншоты

To download the content you need:
1. Download and install torrent client [for Windows] or for mobile system
2. Click on [Download]
Attention.
If the test YOU are NOT a ROBOT - does not work, then You are using an outdated browser.
Install the current browser and click on [Download]

Do not work with Yandex browser. Uploading files to them is erroneous.
Security: torrent client is allowed by Kaspersky.

[en.asmlocator.ru].t4380.torrent 
Torrent: Registered [ 2015-12-01 13:55 ] · AD8B2B51D6728ED425B570F07AF93C97A0890217

Download .torrent

Download

11 KB

Status: checked
Completed: 0 times
Size: 2.11 GB
terms.php
[Profile] [PM]
Display posts:    
Reply to topic

Current time is: 04-Apr 14:22

All times are UTC ± 0



You cannot post new topics in this forum
You cannot reply to topics in this forum
You cannot edit your posts in this forum
You cannot delete your posts in this forum
You cannot vote in polls in this forum
You cannot attach files in this forum
You can download files in this forum
Верим фактам, а не вранью Путина! Факт, что Правительство ведёт Россию к истреблению.
Так как численность населения падает, даже не смотря на приток эмигрантов!
Русская нация вымирает и вырождается, смешиваясь с эмигрантами!
Факт, что военных и граждан предприятий заставляют голосовать за партию Единая Россия и Путина
ПОД СТРАХОМ УВОЛЬНЕНИЯ!
Нам не нужно Правительство, блокирующее личную жизнь, интернет, нарушающее сохранность данных.
Все эти действия финансируются за счёт народа!