Я - безумец / Я - сумасшедший / Попасть в переплет / Безумная / I, madman (Тибор Такач / Tibor Takacs) [1989, США, Триллер, ужасы, BDRip-AVC] DVO (НТВ+) + Sub eng + Original eng

Reply to topic
DL-List and Torrent activity
Size:  3.06 GB   |    Registered:  4 years 4 months   |    Completed:  0 times

Seeder not seen: Never

 
   
 
 
Author Message

star21 ®

Gender: Female

Longevity: 4 years 5 months

Posts: 551945

Location: Екатеринбург

Post 01-Dec-2015 13:55

[Quote]

-Я сумасшедший / Я безумец / Безумная / I, Madman Страна: США
Жанр: ужасы, триллер
Год выпуска: 1989
Продолжительность: 01:29:14-Перевод: Профессиональный (двухголосый закадровый) "НТВ+"
Cубтитры: английские
Оригинальная аудиодорожка: английский-Режиссер: Тибор Такач / Tibor Takacs-В ролях-Дженни Райт, Клэйтон Ронер, Рэндолл Уильям Кук, Стефани Ходж, Мишель Джордан, Вэнс Валенсия, Мэри Болдуин, Раф Назарио, Боб Фрэнк, Брюс Вагнер-Описание-Молодая женщина Вирджиния захвачена чтением романа ужасов. В мыслях она отождествляет себя с героиней книги, которую преследует сгорающий от страсти маньяк. Литературный монстр неожиданно прорывается в реальный мир, совершая убийства, ранее описанные на страницах романа. И главная его цель - Вирджиния.-Качество видео: BDRip
Исходное видео:-Контейнер: MKV-Видео: AVC, 1104х598 (1,85:1), ~4200 kbps, 23.976 fps,
Аудио: AC-3, 192 kbps, Dolby Digital, 2 (L,R) ch, 48 KHz |DVO|
Аудио: AC-3, 448 kbps, Dolby Digital, 3/2 (L,C,R,l,r) + LFE ch, 48 KHz |оригинал|
Формат субтитров: softsub (SRT)--

MediaInfo

x264

VIDEO ENCODING
------------------------------
Encoding video to: C:\Temp\0037.264
x264 Q19.4 1104x598 23.976fps (129768 frames)
avs4x26x.exe: -L x264_64.exe --crf 19.4 --preset slow --profile high --level 4.1 --ref 11 --aq-mode 3 --aq-strength 0.7 --deblock -3:-3 --merange 64 --bframes 14 --trellis 2 --subme 11 --no-mbtree --keyint 240 --colorprim bt709 --transfer bt709 --colormatrix bt709 --vbv-bufsize 62500 --vbv-maxrate 50000 --partitions p8x8,b8x8,i4x4,i8x8 --zones 124713,129768,q=35 --sar 1:1 --output "C:\Temp\0037.264" "C:\Temp\0037.avs"
raw [info]: 1104x598p 1:1 @ 24000/1001 fps (cfr)
x264 [info]: using SAR=1/1
x264 [info]: using cpu capabilities: MMX2 SSE2Fast LZCNT
x264 [info]: profile High, level 4.1
x264 [info]: frame I:765 Avg QP:18.64 size: 73374
x264 [info]: frame P:21885 Avg QP:20.37 size: 37758
x264 [info]: frame B:107118 Avg QP:22.26 size: 18360
x264 [info]: consecutive B-frames: 0.9% 0.6% 2.6% 5.0% 10.1% 58.6% 5.2% 2.0% 2.9% 2.6% 2.7% 2.7% 1.4% 0.9% 1.9%
x264 [info]: mb I I16..4: 3.2% 88.0% 8.8%
x264 [info]: mb P I16..4: 0.1% 11.7% 0.6% P16..4: 28.3% 39.6% 14.2% 0.0% 0.0% skip: 5.5%
x264 [info]: mb B I16..4: 0.0% 1.3% 0.1% B16..8: 43.1% 23.0% 4.7% direct: 7.0% skip:20.8% L0:48.1% L1:45.3% BI: 6.5%
x264 [info]: 8x8 transform intra:94.1% inter:61.3%
x264 [info]: direct mvs spatial:99.3% temporal:0.7%
x264 [info]: coded y,uvDC,uvAC intra: 97.5% 72.4% 27.3% inter: 43.2% 22.5% 0.3%
x264 [info]: i16 v,h,dc,p: 36% 15% 17% 32%
x264 [info]: i8 v,h,dc,ddl,ddr,vr,hd,vl,hu: 10% 5% 8% 11% 15% 14% 13% 12% 11%
x264 [info]: i4 v,h,dc,ddl,ddr,vr,hd,vl,hu: 18% 5% 3% 9% 15% 16% 12% 11% 10%
x264 [info]: i8c dc,h,v,p: 32% 29% 21% 18%
x264 [info]: Weighted P-Frames: Y:10.6% UV:5.7%
x264 [info]: ref P L0: 36.3% 8.5% 18.8% 8.5% 7.4% 5.4% 5.1% 2.7% 2.7% 2.2% 2.3% 0.3% 0.0%
x264 [info]: ref B L0: 56.6% 15.6% 9.6% 5.2% 4.0% 3.4% 2.7% 1.7% 0.9% 0.4%
x264 [info]: ref B L1: 87.7% 12.3%
x264 [info]: kb/s:4211.29
Полное имя : J:\Раздачи\I, Madman_1989_BDRip_cw_RGTru.mkv
Формат : Matroska
Версия формата : Version 2
Размер файла : 3,06 Гбайт
Продолжительность : 1 ч. 30 м.
Общий поток : 4851 Кбит/сек
Название фильма : Я сумасшедший / Я безумец / Безумная / I, Madman__(RGTru_cw)
Дата кодирования : UTC 2015-07-30 12:07:25
Программа кодирования : mkvmerge v7.8.0 ('River Man') 32bit built on Apr 3 2015 12:11:22
Библиотека кодирования : libebml v1.3.1 + libmatroska v1.4.2
Видео
Идентификатор : 1
Формат : AVC
Формат/Информация : Advanced Video Codec
Профиль формата : High@L4.1
Параметр CABAC формата : Да
Параметр ReFrames формата : 11 кадров
Идентификатор кодека : V_MPEG4/ISO/AVC
Продолжительность : 1 ч. 30 м.
Битрейт : 4115 Кбит/сек
Ширина : 1104 пикселя
Высота : 598 пикселей
Соотношение сторон : 1,85:1
Режим частоты кадров : Постоянный
Частота кадров : 23,976 кадра/сек
Цветовое пространство : YUV
Субдискретизация насыщенности : 4:2:0
Битовая глубина : 8 бит
Тип развёртки : Прогрессивная
Бит/(Пиксели*Кадры) : 0.260
Размер потока : 2,59 Гбайт (85%)
Заголовок : I, Madman_1989_BDRip_CW_RGTru
Библиотека кодирования : x264 core 146 r2538 121396c
Настройки программы : cabac=1 / ref=11 / deblock=1:-3:-3 / analyse=0x3:0x113 / me=umh / subme=11 / psy=1 / psy_rd=1.00:0.00 / mixed_ref=1 / me_range=64 / chroma_me=1 / trellis=2 / 8x8dct=1 / cqm=0 / deadzone=21,11 / fast_pskip=1 / chroma_qp_offset=-2 / threads=4 / lookahead_threads=1 / sliced_threads=0 / nr=0 / decimate=1 / interlaced=0 / bluray_compat=0 / constrained_intra=0 / bframes=14 / b_pyramid=2 / b_adapt=2 / b_bias=0 / direct=3 / weightb=1 / open_gop=0 / weightp=2 / keyint=240 / keyint_min=23 / scenecut=40 / intra_refresh=0 / rc_lookahead=50 / rc=crf / mbtree=0 / crf=19.4 / qcomp=0.60 / qpmin=0 / qpmax=69 / qpstep=4 / vbv_maxrate=50000 / vbv_bufsize=62500 / crf_max=0.0 / nal_hrd=none / filler=0 / ip_ratio=1.40 / pb_ratio=1.30 / aq=3:0.70 / zones=124713,129768,q=35
Язык : English
Default : Да
Forced : Нет
Цветовой диапазон : Limited
Основные цвета : BT.709
Характеристики трансфера : BT.709
Коэффициенты матрицы : BT.709
Аудио #1
Идентификатор : 2
Формат : AC-3
Формат/Информация : Audio Coding 3
Расширение режима : CM (complete main)
Параметр Endianness формата : Big
Идентификатор кодека : A_AC3
Продолжительность : 1 ч. 30 м.
Вид битрейта : Постоянный
Битрейт : 192 Кбит/сек
Каналы : 2 канала
Расположение каналов : Front: L R
Частота : 48,0 КГц
Битовая глубина : 16 бит
Метод сжатия : С потерями
Размер потока : 124 Мбайт (4%)
Заголовок : DVO
Язык : Russian
Default : Да
Forced : Нет
Аудио #2
Идентификатор : 3
Формат : AC-3
Формат/Информация : Audio Coding 3
Расширение режима : CM (complete main)
Параметр Endianness формата : Big
Идентификатор кодека : A_AC3
Продолжительность : 1 ч. 30 м.
Вид битрейта : Постоянный
Битрейт : 448 Кбит/сек
Каналы : 6 каналов
Расположение каналов : Front: L C R, Side: L R, LFE
Частота : 48,0 КГц
Битовая глубина : 16 бит
Метод сжатия : С потерями
Размер потока : 289 Мбайт (9%)
Заголовок : Original
Язык : English
Default : Нет
Forced : Нет
Текст
Идентификатор : 4
Формат : UTF-8
Идентификатор кодека : S_TEXT/UTF8
Идентификатор кодека/Информация : UTF-8 Plain Text
Язык : English
Default : Нет
Forced : Нет

Скриншоты

Сравнение с исходником

Рип-- БД

Дополнительно

Кому нужны переводы: В.Дохалов, А.Гаврилов, MVO, VO (неизвестный) - пишите Дорожки хранятся в облаке.
СЭМПЛ со всеми переводами.

To download the content you need:
1. Download and install torrent client [for Windows] or for mobile system
2. Click on [Download]
Attention.
If the test YOU are NOT a ROBOT - does not work, then You are using an outdated browser.
Install the current browser and click on [Download]

Do not work with Yandex browser. Uploading files to them is erroneous.
Security: torrent client is allowed by Kaspersky.

[en.asmlocator.ru].t4378.torrent 
Torrent: Registered [ 2015-12-01 13:55 ] · CB1576602F582E16E1C4F2E0C0674B3CD79D66EA

Download .torrent

Download

16 KB

Status: checked
Completed: 0 times
Size: 3.06 GB
terms.php
[Profile] [PM]
Display posts:    
Reply to topic

Current time is: 10-Apr 08:47

All times are UTC ± 0



You cannot post new topics in this forum
You cannot reply to topics in this forum
You cannot edit your posts in this forum
You cannot delete your posts in this forum
You cannot vote in polls in this forum
You cannot attach files in this forum
You can download files in this forum
Верим фактам, а не вранью Путина! Факт, что Правительство ведёт Россию к истреблению.
Так как численность населения падает, даже не смотря на приток эмигрантов!
Русская нация вымирает и вырождается, смешиваясь с эмигрантами!
Факт, что военных и граждан предприятий заставляют голосовать за партию Единая Россия и Путина
ПОД СТРАХОМ УВОЛЬНЕНИЯ!
Нам не нужно Правительство, блокирующее личную жизнь, интернет, нарушающее сохранность данных.
Все эти действия финансируются за счёт народа!