Дом / House (Стив Майнер / Steve Miner) [1986, США, мистика, комедия, DVDRip] [FullScreen] DVO (РенТВ)

Reply to topic
DL-List and Torrent activity
Size:  749 MB   |    Registered:  4 years 4 months   |    Completed:  0 times

Seeder not seen: Never

 
   
 
 
Author Message

star21 ®

Gender: Female

Longevity: 4 years 4 months

Posts: 551945

Location: Екатеринбург

Post 01-Dec-2015 13:55

[Quote]

Дом
House
FullScreen

Страна: США
Жанр: мистика, комедия
Год выпуска: 1986
Продолжительность: 01:28:13-Перевод: Профессиональный (двухголосый закадровый) РенТВ
Текст читали: Вадим Андреев и Наталья Казначеева
Cубтитры: нет
Оригинальная аудиодорожка: нет-Режиссер: Стив Майнер / Steve Miner
В ролях: Уильям Кэтт, Джордж Уэндт, Ричард Молл, Кэй Ленц, Мэри Стэвин, Майкл Инсайн, Эрик Сильвер, Марк Сильвер, Сьюзэн Френч, Алан Аутри-Описание: Молодой писатель Роджер Кобб испытал на собственной шкуре ужасы вьетнамской войны, но это было лишь началом выпавших на его долю испытаний: брак Роджера развалился, малолетний сын исчез, а кровавые кошмары боев продолжали являться Коббу чуть ли не каждую ночь. Чтобы написать книгу о своих переживаниях, Роджер поселился в мрачном, старинном доме, что достался герою по наследству от тети. У дома — не самая лучшая репутация: его хозяйка была найдена повешенной у себя в комнате, и с тех пор по вечерам здесь раздаются странные звуки…-Доп. информация: DVD 4:3 имеет иное наполнение кадра чем 16:9
О переводе: Перевод на трекере появляется впервые
Качество: VHS
Синхронизация:
За оцифровку перевода большое спасибо-Сэмпл: 2минуты-Качество видео: DVDRip (спасибо )
Формат видео: AVI
Видео: XviD, 624x544, 1,147, 25,000 кадров/сек, 986 Кбит/сек
Аудио: AC-3, 48,0 КГц, 192 Кбит/сек, 2 канала (двухголосый РенТВ)

Сравнение с DVD 16:9

6 скринов

MediaInfo

Общее
Полное имя : Дом.1986.РенТВ.avi
Формат : AVI
Формат/Информация : Audio Video Interleave
Размер файла : 749 Мбайт
Продолжительность : 1 ч. 28 м.
Общий поток : 1188 Кбит/сек
Дата записи : 30.07.2015
Программа кодирования : VirtualDubModRus 1.5.10.2 (build 2542/release)
Библиотека кодирования : VirtualDubMod build 2542/release
Авторское право : mister55555
Примечание : для rutracker.org
Видео
Идентификатор : 0
Формат : MPEG-4 Visual
Профиль формата : Advanced Simple@L5
Параметр BVOP формата : 2
Параметр QPel формата : Нет
Параметр GMC формата : Без точки перехода
Параметр матрицы формата : Default (H.263)
Идентификатор кодека : XVID
Идентификатор кодека/Подсказка : XviD
Продолжительность : 1 ч. 28 м.
Битрейт : 986 Кбит/сек
Ширина : 624 пикселя
Высота : 544 пикселя
Соотношение сторон : 1,147
Частота кадров : 25,000 кадров/сек
Цветовое пространство : YUV
Субдискретизация насыщенности : 4:2:0
Битовая глубина : 8 бит
Тип развёртки : Прогрессивная
Метод сжатия : С потерями
Бит/(Пиксели*Кадры) : 0.116
Размер потока : 622 Мбайт (83%)
Библиотека кодирования : XviD 67
Аудио
Идентификатор : 1
Формат : AC-3
Формат/Информация : Audio Coding 3
Расширение режима : CM (complete main)
Параметр Endianness формата : Big
Идентификатор кодека : 2000
Продолжительность : 1 ч. 28 м.
Вид битрейта : Постоянный
Битрейт : 192 Кбит/сек
Каналы : 2 канала
Расположение каналов : Front: L R
Частота : 48,0 КГц
Битовая глубина : 16 бит
Метод сжатия : С потерями
Размер потока : 121 Мбайт (16%)
Выравнивание : Разделение по промежуткам
Продолжительность промежутка : 40 мс. (1,00 видеокадр)
Время предзагрузки промежутка : 500 мс.
Заголовок : двухголосый РенТВ

To download the content you need:
1. Download and install torrent client [for Windows] or for mobile system
2. Click on [Download]
Attention.
If the test YOU are NOT a ROBOT - does not work, then You are using an outdated browser.
Install the current browser and click on [Download]

Do not work with Yandex browser. Uploading files to them is erroneous.
Security: torrent client is allowed by Kaspersky.

[en.asmlocator.ru].t4375.torrent 
Torrent: Registered [ 2015-12-01 13:55 ] · A916564D07D17BE66FCB14C1597F921E4AB6ACFE

Download .torrent

Download

15 KB

Status: checked
Completed: 0 times
Size: 749 MB
terms.php
[Profile] [PM]
Display posts:    
Reply to topic

Current time is: 05-Apr 02:46

All times are UTC ± 0



You cannot post new topics in this forum
You cannot reply to topics in this forum
You cannot edit your posts in this forum
You cannot delete your posts in this forum
You cannot vote in polls in this forum
You cannot attach files in this forum
You can download files in this forum
Верим фактам, а не вранью Путина! Факт, что Правительство ведёт Россию к истреблению.
Так как численность населения падает, даже не смотря на приток эмигрантов!
Русская нация вымирает и вырождается, смешиваясь с эмигрантами!
Факт, что военных и граждан предприятий заставляют голосовать за партию Единая Россия и Путина
ПОД СТРАХОМ УВОЛЬНЕНИЯ!
Нам не нужно Правительство, блокирующее личную жизнь, интернет, нарушающее сохранность данных.
Все эти действия финансируются за счёт народа!