Сладкие грезы / Sweet Dreams (Карел Рейш / Karel Reisz) [1985, США, мюзикл, драма, биография, музыка, DVDRip] MVO (Нева 1) + Original Eng

Reply to topic
DL-List and Torrent activity
Size:  2.14 GB   |    Registered:  4 years 4 months   |    Completed:  0 times

Seeder not seen: Never

 
   
 
 
Author Message

star21 ®

Gender: Female

Longevity: 4 years 4 months

Posts: 551945

Location: Екатеринбург

Post 01-Dec-2015 13:55

[Quote]

Сладкие грёзы / Sweet Dreams
Страна: США
Жанр: мюзикл, драма, биография, музыка
Год выпуска: 1985
Продолжительность: 01:50:21
Перевод: Профессиональный (многоголосый закадровый) Нева 1
Cубтитры: нет
Оригинальная аудиодорожка: английский
Режиссер: Карел Рейш / Karel Reisz
В ролях: Джессика Лэнг, Эд Харрис, Энн Уэджуорт, Дэвид Кленнон, Джеймс Стейли, Гэри Басараба, Джон Гудман, П.Дж. Соулз, Терри Гарднер, Кэйтлин Келч
Описание: Пэтси Клайн — популярная американская певица 50-х годов, одна из самых знаменитых исполнительниц музыки в стиле «кантри». Действие картины начинается в 1956 году, когда она знакомится со своим будущим мужем Чарли Диком.
Она разводится со своим скучным мужем, собиравшим модели кораблей, и выходит за буйного, непутевого Чарли, познав, что такое настоящая любовь. Чарли, случалось, и бил ее, но скучать с ним не приходилось.
Доп. информация:
Видео из этой раздачи
Роли озвучивали: Светлана Смирнова, Маргарита Матвеева, Вадим Гущин, Игорь Добряков, Гелий Сысоев
Сэмпл: http://sendfile.su/1142220
Качество видео: DVDRip
Формат видео: AVI
Видео: 720x416 (1.73:1), 25 fps, XviD build 64 ~2388 kbps avg, 0.32 bit/pixel
Аудио: 48 kHz, AC3 Dolby Digital, 2/0 (L,R) ch, ~192 kbps
Аудио 2: 48 kHz, AC3 Dolby Digital, 2/0 (L,R) ch, ~192 kbps

MediaInfo

Формат : AVI
Формат/Информация : Audio Video Interleave
Профиль формата : OpenDML
Размер файла : 2,14 Гбайт
Продолжительность : 1 ч. 50 м.
Общий поток : 2779 Кбит/сек
Программа кодирования : VirtualDubMod 1.5.10.3 || (build 2550/release)
Библиотека кодирования : VirtualDubMod build 2550/release
Видео
Идентификатор : 0
Формат : MPEG-4 Visual
Профиль формата : Advanced Simple@L5
Параметр BVOP формата : 2
Параметр QPel формата : Нет
Параметр GMC формата : Без точки перехода
Параметр матрицы формата : Выборочная
Идентификатор кодека : XVID
Идентификатор кодека/Подсказка : XviD
Продолжительность : 1 ч. 50 м.
Битрейт : 2377 Кбит/сек
Ширина : 720 пикселей
Высота : 416 пикселей
Соотношение сторон : 16:9
Частота кадров : 25,000 кадров/сек
Цветовое пространство : YUV
Субдискретизация насыщенности : 4:2:0
Битовая глубина : 8 бит
Тип развёртки : Прогрессивная
Метод сжатия : С потерями
Бит/(Пиксели*Кадры) : 0.317
Размер потока : 1,83 Гбайт (86%)
Библиотека кодирования : XviD 64
Аудио #1
Идентификатор : 1
Формат : AC-3
Формат/Информация : Audio Coding 3
Расширение режима : CM (complete main)
Идентификатор кодека : 2000
Продолжительность : 1 ч. 50 м.
Вид битрейта : Постоянный
Битрейт : 192 Кбит/сек
Каналы : 2 канала
Расположение каналов : Front: L R
Частота : 48,0 КГц
Битовая глубина : 16 бит
Метод сжатия : С потерями
Размер потока : 152 Мбайт (7%)
Выравнивание : Разделение по промежуткам
Продолжительность промежутка : 40 мс. (1,00 видеокадр)
Время предзагрузки промежутка : 500 мс.
Аудио #2
Идентификатор : 2
Формат : AC-3
Формат/Информация : Audio Coding 3
Расширение режима : CM (complete main)
Идентификатор кодека : 2000
Продолжительность : 1 ч. 50 м.
Вид битрейта : Постоянный
Битрейт : 192 Кбит/сек
Каналы : 2 канала
Расположение каналов : Front: L R
Частота : 48,0 КГц
Битовая глубина : 16 бит
Метод сжатия : С потерями
Размер потока : 152 Мбайт (7%)
Выравнивание : Разделение по промежуткам
Продолжительность промежутка : 40 мс. (1,00 видеокадр)
Время предзагрузки промежутка : 500 мс.

Скриншоты

To download the content you need:
1. Download and install torrent client [for Windows] or for mobile system
2. Click on [Download]
Attention.
If the test YOU are NOT a ROBOT - does not work, then You are using an outdated browser.
Install the current browser and click on [Download]

Do not work with Yandex browser. Uploading files to them is erroneous.
Security: torrent client is allowed by Kaspersky.

[en.asmlocator.ru].t4374.torrent 
Torrent: Registered [ 2015-12-01 13:55 ] · 0C15215E3280749949B3E657B1C0E0E98FA06CC4

Download .torrent

Download

22 KB

Status: checked
Completed: 0 times
Size: 2.14 GB
terms.php
[Profile] [PM]
Display posts:    
Reply to topic

Current time is: 03-Apr 04:02

All times are UTC ± 0



You cannot post new topics in this forum
You cannot reply to topics in this forum
You cannot edit your posts in this forum
You cannot delete your posts in this forum
You cannot vote in polls in this forum
You cannot attach files in this forum
You can download files in this forum
Верим фактам, а не вранью Путина! Факт, что Правительство ведёт Россию к истреблению.
Так как численность населения падает, даже не смотря на приток эмигрантов!
Русская нация вымирает и вырождается, смешиваясь с эмигрантами!
Факт, что военных и граждан предприятий заставляют голосовать за партию Единая Россия и Путина
ПОД СТРАХОМ УВОЛЬНЕНИЯ!
Нам не нужно Правительство, блокирующее личную жизнь, интернет, нарушающее сохранность данных.
Все эти действия финансируются за счёт народа!