Ночной убийца / Non aprite quella porta 3 (Клаудио Фрагассо / Claudio Fragasso) [1990, Италия, Триллер, ужасы, детектив, криминал, VHSRip] AVO Дольский

Reply to topic
DL-List and Torrent activity
Size:  1.39 GB   |    Registered:  4 years 3 months   |    Completed:  0 times

Seeder not seen: 1 year 8 months

 
   
 
 
Author Message

star21 ®

Gender: Female

Longevity: 4 years 4 months

Posts: 551945

Location: Екатеринбург

Post 01-Dec-2015 13:55

[Quote]

Ночной убийца / Non aprite quella porta 3
Страна: Италия
Жанр: Триллер ,ужасы ,детектив,криминал
Год выпуска: 1990
Продолжительность: 01:28:33
Перевод: Авторский (одноголосый закадровый) А. Дольский
Cубтитры: нет
Режиссер: Клаудио Фрагассо / Claudio Fragasso
В ролях: Питер Хутен, Тара Бакман, Ричард Фостер, Мэл Дэвис, Ли Лайвли, Гэби Форд и др.
Описание: Фильм начинается с показа театра, где группа танцовщиц репетирует под строгим взглядом своего хореографа. Тем временем, девушка Элизабет, за опоздание на репетицию, получает словесных подзатыльников, и оправляется в раздевалку, где её ожидает маньяк в резиновым костюме и с огромными когтями. Недовольная долгим отсутствием Элизабет, хореограф заходит в раздевалку, где и обнаруживает растерзанную девушку, но шок длился не долго, так как маньяк оказался неподалеку…
Доп. информация: Дорога синхронизирована из раздачи ILSA_SS
РЕЛИЗ EXPLOCINE / CINEMASCOPE
Сэмпл: https://yadi.sk/i/zPROQYLyiDKYm
Качество видео: VHSRip
Формат видео: AVI
Видео: XviD MPEG-4 , 640x480 (1.33:1) , 25.000 fps , 2 053 Kbps
Аудио: AC3 , 48 kHz , 192.00 kbps avg , 2/0 (L,R) ch

MediaInfo

omplete name Ночной убийца 1990.avi
Format : AVI
Format/Info : Audio Video Interleave
File size : 1.39 GiB
Duration : 1h 28mn
Overall bit rate : 2 255 Kbps
Writing application : VirtualDubMod 1.5.10.1 (build 2439/release)
Writing library : VirtualDub build 35491/release
Video
ID : 0
Format : MPEG-4 Visual
Format profile : Advanced Simple@L5
Format settings, BVOP : 1
Format settings, QPel : No
Format settings, GMC : No warppoints
Format settings, Matrix : Default (MPEG)
Codec ID : XVID
Codec ID/Hint : XviD
Duration : 1h 28mn
Bit rate : 2 053 Kbps
Width : 640 pixels
Height : 480 pixels
Display aspect ratio : 4:3
Frame rate : 25.000 fps
Color space : YUV
Chroma subsampling : 4:2:0
Bit depth : 8 bits
Scan type : Progressive
Compression mode : Lossy
Bits/(Pixel*Frame) : 0.267
Stream size : 1.27 GiB (91%)
Writing library : XviD 1.2.0.dev47 (UTC 2006-11-01)
Audio
ID : 1
Format : AC-3
Format/Info : Audio Coding 3
Mode extension : CM (complete main)
Format settings, Endianness : Big
Codec ID : 2000
Duration : 1h 28mn
Bit rate mode : Constant
Bit rate : 192 Kbps
Channel(s) : 2 channels
Channel positions : Front: L R
Sampling rate : 48.0 KHz
Bit depth : 16 bits
Compression mode : Lossy
Stream size : 122 MiB (9%)
Alignment : Aligned on interleaves
Interleave, duration : 40 ms (1.00 video frame)
Interleave, preload duratio : 512 ms

To download the content you need:
1. Download and install torrent client [for Windows] or for mobile system
2. Click on [Download]
Attention.
If the test YOU are NOT a ROBOT - does not work, then You are using an outdated browser.
Install the current browser and click on [Download]

Do not work with Yandex browser. Uploading files to them is erroneous.
Security: torrent client is allowed by Kaspersky.

[en.asmlocator.ru].t4373.torrent 
Torrent: Registered [ 2015-12-01 13:55 ] · 2D69B6987D2FFFB23E36DCAF4F3ADDE639995FFF

Download .torrent

Download

15 KB

Status: checked
Completed: 0 times
Size: 1.39 GB
terms.php
[Profile] [PM]
Display posts:    
Reply to topic

Current time is: 31-Mar 16:34

All times are UTC ± 0



You cannot post new topics in this forum
You cannot reply to topics in this forum
You cannot edit your posts in this forum
You cannot delete your posts in this forum
You cannot vote in polls in this forum
You cannot attach files in this forum
You can download files in this forum
Верим фактам, а не вранью Путина! Факт, что Правительство ведёт Россию к истреблению.
Так как численность населения падает, даже не смотря на приток эмигрантов!
Русская нация вымирает и вырождается, смешиваясь с эмигрантами!
Факт, что военных и граждан предприятий заставляют голосовать за партию Единая Россия и Путина
ПОД СТРАХОМ УВОЛЬНЕНИЯ!
Нам не нужно Правительство, блокирующее личную жизнь, интернет, нарушающее сохранность данных.
Все эти действия финансируются за счёт народа!