Закон любви / Banovic Strahinja (Ватрослав Мимица / Vatroslav Mimica) [1981 г., Югославия, Исторический, DVDRip] Dub + MVO + Sub

Reply to topic
DL-List and Torrent activity
Size:  1.35 GB   |    Registered:  4 years 3 months   |    Completed:  0 times

Seeder not seen: Never

 
   
 
 
Author Message

star21 ®

Gender: Female

Longevity: 4 years 4 months

Posts: 551945

Location: Екатеринбург

Post 01-Dec-2015 13:55

[Quote]

Закон любви / Banovic Strahinja
Страна: Югославия, ФРГ
Жанр: Исторический
Год выпуска: 1981
Продолжительность: 01:39:55
Перевод: Профессиональный (дублированный) вперемешку с любительским (многоголосым закадровым) - Колобок
Доп. инфо о переводе: к/с им. М. Горького
Cубтитры: русские
Режиссер: Ватрослав Мимица / Vatroslav Mimica
В ролях: Франко Неро, Драган Николич, Санья Вейнович, Раде Шербеджиа, Герт Фрёбе, Гизела Факкельдей, Петра Питерс, Столе Аранджелович, Шарль Мийо, Неда Спасоевич, Нина Палмерс-Карин, Надежда Вукичевич, Янез Врховец, Златко Мадунич, Марьяна Каузларич, Радош Баич, Игорь Гало, Мирко Боман, Мирослав Бухин, Катина Иванова, Данко Люстина, Драган Миливоевич, Эдо Пероцевич, Пасана Пероцевич, Митар Станковски
Роли дублировали: А. Петренко, Т. Спивак, А. Белявский, Н. Витепаш, А. Сафонов, Ю. Саранцев
Описание: По мотивам предания "Банович Страхиня".
Осень 1388 года. За год до Битвы на Косовом поле. Орды бандитов вторгаются в Сербию через южные границы королевства. Когда Банович Страхиня отправляется на охоту, турки нападают на его дом в поисках золота, зверски убивают мужчин и женщин сербского витязя, и уводят в плен его молодую жену. И витязь Страхиня клянется - за всё отомстить...
Доп. информация: Рип сделан с этого исходника:
Сэмпл: https://www.sendspace.com/file/uk8x9c
Качество видео: DVDRip
Формат видео: AVI
Видео: 1799 Кбит/сек, 720*544 (4:3), 25,000 кадров/сек, XviD
Аудио: Русский, 128 Кбит/сек, 48,0 КГц, 2 канала, MP3
Формат субтитров: softsub (SRT)
Доп. информация о субтитрах: русские

MediaInfo

Формат                                   : AVIФормат/Информация                        : Audio Video InterleaveРазмер файла                             : 1,35 ГбайтПродолжительность                        : 1 ч. 39 м.Общий поток                              : 1940 Кбит/сек
ВидеоИдентификатор : 0Формат : MPEG-4 VisualПрофиль формата : Advanced Simple@L5Параметр BVOP формата : 2Параметр QPel формата : НетПараметр GMC формата : Без точки переходаПараметр матрицы формата : Default (H.263)Идентификатор кодека : XVIDИдентификатор кодека/Подсказка : XviDПродолжительность : 1 ч. 39 м.Битрейт : 1799 Кбит/секШирина : 720 пикселейВысота : 544 пикселяСоотношение сторон : 4:3Частота кадров : 25,000 кадров/секЦветовое пространство : YUVСубдискретизация насыщенности : 4:2:0Битовая глубина : 8 битТип развёртки : ПрогрессивнаяМетод сжатия : С потерямиБит/(Пиксели*Кадры) : 0.184Размер потока : 1,26 Гбайт (93%)Библиотека кодирования : XviD 1.2.1 (UTC 2008-12-04)
АудиоИдентификатор : 1Формат : MPEG AudioВерсия формата : Version 1Профиль формата : Layer 3Идентификатор кодека : 55Идентификатор кодека/Подсказка : MP3Продолжительность : 1 ч. 39 м.Продолжительность оригинала : 1 ч. 39 м.Вид битрейта : ПостоянныйБитрейт : 128 Кбит/секКаналы : 2 каналаЧастота : 48,0 КГцМетод сжатия : С потерямиРазмер потока : 91,5 Мбайт (7%)Выравнивание : Разделение по промежуткамПродолжительность промежутка : 24 мс. (0,60 видеокадр)

Скриншот c названием фильма

Скриншоты

10.06.12 Торрент-файл перезалит. Рип переделан ввиду улучшения исходника, субтитры поправлены.
03.08.15 Торрент-файл перезалит. Аудиодорога заменена комби-вариантом - дубляж вперемешку с многоголоской от Колобка. Субтитры заменены на полные. Сэмпл перезалит.

To download the content you need:
1. Download and install torrent client [for Windows] or for mobile system
2. Click on [Download]
Attention.
If the test YOU are NOT a ROBOT - does not work, then You are using an outdated browser.
Install the current browser and click on [Download]

Do not work with Yandex browser. Uploading files to them is erroneous.
Security: torrent client is allowed by Kaspersky.

[en.asmlocator.ru].t4371.torrent 
Torrent: Registered [ 2015-12-01 13:55 ] · 442E83CD325D7571F1FAC9030CE07EC2F973A64B

Download .torrent

Download

14 KB

Status: checked
Completed: 0 times
Size: 1.35 GB
terms.php
[Profile] [PM]
Display posts:    
Reply to topic

Current time is: 29-Mar 17:28

All times are UTC ± 0



You cannot post new topics in this forum
You cannot reply to topics in this forum
You cannot edit your posts in this forum
You cannot delete your posts in this forum
You cannot vote in polls in this forum
You cannot attach files in this forum
You can download files in this forum
Верим фактам, а не вранью Путина! Факт, что Правительство ведёт Россию к истреблению.
Так как численность населения падает, даже не смотря на приток эмигрантов!
Русская нация вымирает и вырождается, смешиваясь с эмигрантами!
Факт, что военных и граждан предприятий заставляют голосовать за партию Единая Россия и Путина
ПОД СТРАХОМ УВОЛЬНЕНИЯ!
Нам не нужно Правительство, блокирующее личную жизнь, интернет, нарушающее сохранность данных.
Все эти действия финансируются за счёт народа!