Отель Никому не скажу / Отель Не скажу / The Rosebud Beach Hotel / The No Tell Hotel (Гарри Харвитц / Harry Hurwitz) [1984, США, комедия, VHSRip] AVO (Кузнецов) + Original Eng

Reply to topic
DL-List and Torrent activity
Size:  1.48 GB   |    Registered:  4 years 4 months   |    Completed:  0 times

Seeder not seen: Never

 
   
 
 
Author Message

star21 ®

Gender: Female

Longevity: 4 years 4 months

Posts: 551945

Location: Екатеринбург

Post 01-Dec-2015 13:55

[Quote]

Отель «Никому не скажу» / Отель «Не скажу» / The Rosebud Beach Hotel / The No-Tell Hotel
Страна: США
Жанр: комедия
Год выпуска: 1984
Продолжительность: 01:22:10
Перевод: Авторский (одноголосый закадровый) Кузнецов
Cубтитры: нет
Оригинальная аудиодорожка: английский
Режиссер: Гарри Харвитц / Harry Hurwitz
В ролях: Коллин Кэмп, Питер Сколари, Кристофер Ли, Фрэн Дрешер, Эдди Дизен, Чак МакКанн, Хэнк Гаррет, Хэмилтон Кэмп, Джонатан Шмок, Джеймс Вэллели
Описание: Кристофер Ли в роли богатого бизнесмена не хочет, чтобы его единственная дочь и наследница вышла замуж за никчемного недотепу Сколари. Последним испытанием для своего будущего зятя он делает третьесортный отель, так как уверен, что тот в качестве менеджера завалит все дело. Но он не мог знать, что его дочь возьмется за работу вместе со своим женихом. Превратив отель в нечто вроде публичного дома, они добиваются неожиданного успеха.
Доп. информация: там откуда скачал, было обозначено как DVDrip
Сэмпл: http://sendfile.su/1143373
Качество видео: VHSRip
Формат видео: AVI
Видео: 720x544 (1.32:1), 23.976 fps, XviD build 55 ~2183 kbps avg, 0.23 bit/pixel
Аудио: 48 kHz, AC3 Dolby Digital, 2/0 (L,R) ch, ~192 kbps
Аудио 2: 48 kHz, AC3 Dolby Digital, 2/0 (L,R) ch, ~192 kbps (Eng) отдельным файлом

MediaInfo

Формат : AVI
Формат/Информация : Audio Video Interleave
Размер файла : 1,37 Гбайт
Продолжительность : 1 ч. 22 м.
Общий поток : 2385 Кбит/сек
Программа кодирования : VirtualDubMod 1.5.4.1 (build 2178/release)
Библиотека кодирования : VirtualDub build 34807/release
Видео
Идентификатор : 0
Формат : MPEG-4 Visual
Профиль формата : Advanced Simple@L5
Параметр BVOP формата : 1
Параметр QPel формата : Нет
Параметр GMC формата : Без точки перехода
Параметр матрицы формата : Выборочная
Идентификатор кодека : XVID
Идентификатор кодека/Подсказка : XviD
Продолжительность : 1 ч. 22 м.
Битрейт : 2184 Кбит/сек
Ширина : 720 пикселей
Высота : 544 пикселя
Соотношение сторон : 4:3
Частота кадров : 23,976 кадра/сек
Цветовое пространство : YUV
Субдискретизация насыщенности : 4:2:0
Битовая глубина : 8 бит
Тип развёртки : Прогрессивная
Метод сжатия : С потерями
Бит/(Пиксели*Кадры) : 0.233
Размер потока : 1,25 Гбайт (92%)
Библиотека кодирования : XviD 1.3.0.dev55
Аудио
Идентификатор : 1
Формат : AC-3
Формат/Информация : Audio Coding 3
Расширение режима : CM (complete main)
Идентификатор кодека : 2000
Продолжительность : 1 ч. 22 м.
Вид битрейта : Постоянный
Битрейт : 192 Кбит/сек
Каналы : 2 канала
Расположение каналов : Front: L R
Частота : 48,0 КГц
Битовая глубина : 16 бит
Метод сжатия : С потерями
Размер потока : 113 Мбайт (8%)
Выравнивание : Соединение по промежуткам
Продолжительность промежутка : 42 мс. (1,00 видеокадр)
Время предзагрузки промежутка : 512 мс.

Скриншот c названием фильма

Скриншоты

Альтернативное название фильма

To download the content you need:
1. Download and install torrent client [for Windows] or for mobile system
2. Click on [Download]
Attention.
If the test YOU are NOT a ROBOT - does not work, then You are using an outdated browser.
Install the current browser and click on [Download]

Do not work with Yandex browser. Uploading files to them is erroneous.
Security: torrent client is allowed by Kaspersky.

[en.asmlocator.ru].t4368.torrent 
Torrent: Registered [ 2015-12-01 13:55 ] · A554439634A7D54D8C5FEBCB09E142C49EC2B515

Download .torrent

Download

30 KB

Status: checked
Completed: 0 times
Size: 1.48 GB
terms.php
[Profile] [PM]
Display posts:    
Reply to topic

Current time is: 03-Apr 10:39

All times are UTC ± 0



You cannot post new topics in this forum
You cannot reply to topics in this forum
You cannot edit your posts in this forum
You cannot delete your posts in this forum
You cannot vote in polls in this forum
You cannot attach files in this forum
You can download files in this forum
Верим фактам, а не вранью Путина! Факт, что Правительство ведёт Россию к истреблению.
Так как численность населения падает, даже не смотря на приток эмигрантов!
Русская нация вымирает и вырождается, смешиваясь с эмигрантами!
Факт, что военных и граждан предприятий заставляют голосовать за партию Единая Россия и Путина
ПОД СТРАХОМ УВОЛЬНЕНИЯ!
Нам не нужно Правительство, блокирующее личную жизнь, интернет, нарушающее сохранность данных.
Все эти действия финансируются за счёт народа!