Дева Хиросимы / Hiroshima Maiden (Джоан Дарлинг / Joan Darling) [1988, США, драма, семейный, DVDRip] VO (Владимир Воронцов (-Доцент-)) + Original Eng

Reply to topic
DL-List and Torrent activity
Size:  825 MB   |    Registered:  4 years 5 months   |    Completed:  0 times
DL-List: None

Seeder not seen: Never

 
   
 
 
Author Message

star21 ®

Gender: Female

Longevity: 4 years 6 months

Posts: 551945

Location: Екатеринбург

Post 01-Dec-2015 13:55

[Quote]

Дева Хиросимы / Hiroshima Maiden
Страна: США
Жанр: драма, семейный
Год выпуска: 1988
Продолжительность: 00:56:10
Перевод: Одноголосый закадровый Владимир Воронцов (-Доцент-)
Cубтитры: нет
Оригинальная аудиодорожка: английский
Режиссер: Джоан Дарлинг / Joan Darling
В ролях: Сьюзан Блейкли / Susan Blakely, Стивен Дорфф / Stephen Dorff, Тэмлин Томита / Tamlyn Tomita, Ричард Мейсер / Richard Masur, Кристофер Мастерсон / Christopher Masterson, Кенни Моррисон / Kenny Morrison, Дэннис Хэскинс / Dennis Haskins, Брэндон Литтл / Brandon Little, Брэндон Крэйн / Brandon Crane, Майкл Бэколл / Michael Bacall
Описание: "Хиросимские девушки" - это группа из 25 японских девушек, которые в школьном возрасте были изуродованы 6 августа 1945 года, получив страшные ожоги от взрыва атомной бомбы в Хиросиме. В 1955 году они поступили в американские клиники для проведения сложных реконструктивных операций, а жить их приняли американские семьи. Как меняется привычный уклад жизни одной из таких семей, когда у них остается жить одна их таких девушек, показан в этом фильме. Не все и не сразу воспринимают однозначно необходимость помощи этим людям, а особенно дети…
Доп. информация: [imdb]http://www.imdb.com/title/tt0224412[/imdb]
Сэмпл: http://multi-up.com/1061549
Качество видео: DVDRip
Формат видео: AVI
Видео: XviD, 640x480 (4:3), 23.976 fps, 1657 kbps
Аудио: AC3, 48000 Hz, 2 ch, 192 kbps (русский)
Аудио 2: AC3, 48000 Hz, 2 ch, 192 kbps (английский, отдельно)

MediaInfo

General
Complete name : F:\РУТРЕКЕР\Дева Хиросимы\Hiroshima Maiden.avi
Format : AVI
Format/Info : Audio Video Interleave
File size : 747 MiB
Duration : 56mn 14s
Overall bit rate : 1 858 Kbps
Writing application : VirtualDubMod 1.5.10.2 (build 2540/release)
Writing library : VirtualDubMod build 2540/release
Video
ID : 0
Format : MPEG-4 Visual
Format profile : Advanced Simple@L5
Format settings, BVOP : 1
Format settings, QPel : No
Format settings, GMC : No warppoints
Format settings, Matrix : Custom
Codec ID : XVID
Codec ID/Hint : XviD
Duration : 56mn 14s
Bit rate : 1 657 Kbps
Width : 640 pixels
Height : 480 pixels
Display aspect ratio : 4:3
Frame rate : 23.976 fps
Color space : YUV
Chroma subsampling : 4:2:0
Bit depth : 8 bits
Scan type : Progressive
Compression mode : Lossy
Bits/(Pixel*Frame) : 0.225
Stream size : 666 MiB (89%)
Writing library : XviD 1.2.1 (UTC 2008-12-04)
Audio
ID : 1
Format : AC-3
Format/Info : Audio Coding 3
Mode extension : CM (complete main)
Format settings, Endianness : Big
Codec ID : 2000
Duration : 56mn 13s
Bit rate mode : Constant
Bit rate : 192 Kbps
Channel(s) : 2 channels
Channel positions : Front: L R
Sampling rate : 48.0 KHz
Bit depth : 16 bits
Compression mode : Lossy
Stream size : 77.2 MiB (10%)
Alignment : Split accross interleaves
Interleave, duration : 42 ms (1.00 video frame)
Interleave, preload duration : 500 ms
Language : English

Скриншот c названием фильма

Скриншоты


To download the content you need:
1. Download and install torrent client [for Windows] or for mobile system
2. Click on [Download]
Attention.
If the test YOU are NOT a ROBOT - does not work, then You are using an outdated browser.
Install the current browser and click on [Download]

Do not work with Yandex browser. Uploading files to them is erroneous.
Security: torrent client is allowed by Kaspersky.

[en.asmlocator.ru].t4367.torrent 
Torrent: Registered [ 2015-12-01 13:55 ] · 0635B857E1BB18D856B97E865891D3D63C2E9FEC

Download .torrent

Download

17 KB

Status: checked
Completed: 0 times
Size: 825 MB
terms.php
[Profile] [PM]
Display posts:    
Reply to topic

Current time is: 29-May 11:02

All times are UTC ± 0



You cannot post new topics in this forum
You cannot reply to topics in this forum
You cannot edit your posts in this forum
You cannot delete your posts in this forum
You cannot vote in polls in this forum
You cannot attach files in this forum
You can download files in this forum
Верим фактам, а не вранью Путина! Факт, что Правительство ведёт Россию к истреблению.
Так как численность населения падает, даже не смотря на приток эмигрантов!
Русская нация вымирает и вырождается, смешиваясь с эмигрантами!
Факт, что военных и граждан предприятий заставляют голосовать за партию Единая Россия и Путина
ПОД СТРАХОМ УВОЛЬНЕНИЯ!
Нам не нужно Правительство, блокирующее личную жизнь, интернет, нарушающее сохранность данных.
Все эти действия финансируются за счёт народа!