Все Меры Предосторожности / Extreme Prejudice (Уолтер Хилл / Walter Hill) [1987, США, боевик, триллер, драма, криминал, вестерн, HDRip] DVO (ОРТ)

Reply to topic
DL-List and Torrent activity
Size:  1.35 GB   |    Registered:  4 years 3 months   |    Completed:  0 times

Seeder not seen: Never

 
   
 
 
Author Message

star21 ®

Gender: Female

Longevity: 4 years 4 months

Posts: 551945

Location: Екатеринбург

Post 01-Dec-2015 13:55

[Quote]

Все Меры Предосторожности / Extreme Prejudice
Год выпуска: 1987
Страна: США
Жанр: боевик, триллер, драма, криминал, вестерн
Продолжительность: 01:40:44
Перевод: Профессиональный (двухголосый закадровый) - ОРТ
Cубтитры: нет
Режиссер: Уолтер Хилл / Walter Hill
В ролях: Ник Нолти (Jack Benteen), Пауэрс Бут (Cash Bailey), Майкл Айронсайд (Maj. Paul Hackett), Мария Кончита Алонсо (Sarita Cisneros), Рип Торн (Sheriff Hank Pearson), Клэнси Браун (MSgt. Larry McRose), Уильям Форсайт (Sgt. Buck Atwater), Мэтт Малхерн (SSgt. Declan Patrick Coker), Лэрри Б. Скотт (Sgt. Charles Biddle), Дэн Туллис мл. (Sgt. Luther Fry)-Мировая премьера: 24 апреля 1987-Описание: Джек Бентин, неуязвимый техасский рейнджер, должен проявить крутой характер. Ведь его друг детства — один из главарей контрабандной перевозки наркотиков через мексиканскую границу, и шесть агентов спецслужб получают задание захватить наркоторговца. Захочет ли Джек защитить своего друга?-Благодарности:
- .
- собственная запись перевода с телеканала ОРТ в начале 2000-х годов через видеомагнитофон и оцифровка с видеокассеты.
- синхронизация перевода.-Данный перевод на трекере появляется впервые.
На русский язык фильм озвучен кинокомпанией Селена Интернешнл по заказу Общественного Российского Телевидения.
Текст читают Виктор Бохон и Анна Каменкова.-Рейтинг

MPAA: R - Лицам до 17 лет обязательно присутствие взрослого.-Качество видео: HDRip
Формат видео: AVI -> //SAMPLE//
Видео: XviD, 720x400 (16:9), 25.000 fps, 1714 kbps avg
Аудио:
1 - 48 khz, AC3 Dolby Digital, 2/0 (L,R) ch, ~192 kbps [ОРТ] VHSRip

MediaInfo

General
Complete name : E:\Торрент Файлы\Будущие Релизы на Трекере\1.35 - 1.46 и более гб\Все Меры Предосторожности (ОРТ).avi
Format : AVI
Format/Info : Audio Video Interleave
File size : 1.35 GiB
Duration : 1h 40mn
Overall bit rate : 1 915 Kbps
Director : Consul
Writing application : VirtualDubMod 1.5.10.3 | www.virtualdub-fr.org || (build 2550/release)
Writing library : VirtualDubMod build 2550/release
Comment : Consul specifically for http://
Video
ID : 0
Format : MPEG-4 Visual
Format profile : Advanced Simple@L5
Format settings, BVOP : 1
Format settings, QPel : No
Format settings, GMC : No warppoints
Format settings, Matrix : Custom
Codec ID : XVID
Codec ID/Hint : XviD
Duration : 1h 40mn
Bit rate : 1 714 Kbps
Width : 720 pixels
Height : 400 pixels
Display aspect ratio : 16:9
Frame rate : 25.000 fps
Color space : YUV
Chroma subsampling : 4:2:0
Bit depth : 8 bits
Scan type : Progressive
Compression mode : Lossy
Bits/(Pixel*Frame) : 0.238
Stream size : 1.21 GiB (89%)
Writing library : XviD 73
Audio
ID : 1
Format : AC-3
Format/Info : Audio Coding 3
Mode extension : CM (complete main)
Format settings, Endianness : Big
Codec ID : 2000
Duration : 1h 40mn
Bit rate mode : Constant
Bit rate : 192 Kbps
Channel(s) : 2 channels
Channel positions : Front: L R
Sampling rate : 48.0 KHz
Compression mode : Lossy
Stream size : 138 MiB (10%)
Alignment : Split accross interleaves
Interleave, duration : 40 ms (1.00 video frame)
Interleave, preload duratio : 500 ms

Скриншот c названием фильма

Скриншоты

To download the content you need:
1. Download and install torrent client [for Windows] or for mobile system
2. Click on [Download]
Attention.
If the test YOU are NOT a ROBOT - does not work, then You are using an outdated browser.
Install the current browser and click on [Download]

Do not work with Yandex browser. Uploading files to them is erroneous.
Security: torrent client is allowed by Kaspersky.

[en.asmlocator.ru].t4363.torrent 
Torrent: Registered [ 2015-12-01 13:55 ] · 65CCFB5869614DA43361BFF18374D0B85DF0034E

Download .torrent

Download

14 KB

Status: checked
Completed: 0 times
Size: 1.35 GB
terms.php
[Profile] [PM]
Display posts:    
Reply to topic

Current time is: 29-Mar 18:32

All times are UTC ± 0



You cannot post new topics in this forum
You cannot reply to topics in this forum
You cannot edit your posts in this forum
You cannot delete your posts in this forum
You cannot vote in polls in this forum
You cannot attach files in this forum
You can download files in this forum
Верим фактам, а не вранью Путина! Факт, что Правительство ведёт Россию к истреблению.
Так как численность населения падает, даже не смотря на приток эмигрантов!
Русская нация вымирает и вырождается, смешиваясь с эмигрантами!
Факт, что военных и граждан предприятий заставляют голосовать за партию Единая Россия и Путина
ПОД СТРАХОМ УВОЛЬНЕНИЯ!
Нам не нужно Правительство, блокирующее личную жизнь, интернет, нарушающее сохранность данных.
Все эти действия финансируются за счёт народа!