[SACD-R][OF] Henry Mancini - Mancini Country & Country Gentleman - 1970-1974/2016 (Easy Listening)

Reply to topic
DL-List and Torrent activity
Size:  2.71 GB   |    Registered:  2 years 6 months   |    Completed:  2 times

Seeder not seen: 5 months 13 days

 
   
 
 
Author Message

star21 ®

Gender: Female

Longevity: 4 years 6 months

Posts: 551945

Location: Екатеринбург

Post 13-Nov-2017 03:20

[Quote]

HENRY MANCINI
MANCINI COUNTRY & COUNTRY GENTLEMAN
HENRY MANCINI, HIS PIANO, ORCHESTRA & CHORUS Формат записи/Источник записи: [SACD-R][OF]
Наличие водяных знаков: Нет
Год издания/переиздания диска: 1970-1974/2016
Жанр: Easy Listening
Издатель (лейбл): Vocalion
Продолжительность: 01:03:07
Наличие сканов в содержимом раздачи: Да (сканы)

Треклист:

MANCINI COUNTRY
1. Let it be Me (Bécaud; Delanoë; Curtis) (2:57)
2. Last Date (Cramer) (2:52)
3. Almost Persuaded (Sherrill; Sutton) (2:47)
4. Take Me to Your World (Sherrill; Sutton) (3:08)
5. Release Me (And Let Me Love Again) (Miller; Stevenson) (2:59)
6. You Don’t Know Me (Arnold; Walker) (3:19)
7. Phone Call to the Past (Mancini; Mercer) (2:57)
8. I Can’t Stop Loving You (Gibson) (2:28)
9. Make the World Go Away (Cochran) (3:03)
10. Stand by Your Man (Wynette; Sherrill) (3:15)
11. The End of the World (Kent; Dee) (3:10)COUNTRY GENTLEMAN
12. Delta Dawn (Harvey; Collins) (2:40)
13. If You’ve Got the Time (I’ve Got the Place) (Backer) (3:15)
14. A Picture of Me (Without You) (Wilson; Richey) (3:04)
15. Your Cheatin’ Heart (Williams) (2:41)
16. For the Good Times (Kristofferson) (2:53)
17. Take Me Home, Country Roads (Danoff; Nivert; Denver) (2:59)
18. Come Live with Me (B & F Bryant) (2:32)
19. With One Exception (Sherrill; Sutton) (2:29)
20. The Ways to Love a Man (Wynette; Sherrill; Sutton) (2:38)
21. Medley: All His Children (Mancini; A & M Bergman) (5:00)
– Tomorrow is My Friend (Mancini; A & M Bergman)
– Dear Heart (Mancini; Livingston; Evans)
Контейнер: ISO (*.iso)
Тип рипа: imageРазрядность: 64(2,8 MHz/1 Bit)
Формат: DST64
Количество каналов: 4.0/2.0

Official DR value: DR7/DR12

foobar2000 1.3.14 / Dynamic Range Meter 1.1.1log date: 2017-04-09 10:36:48--------------------------------------------------------------------------------Analyzed: Henry Mancini / Mancini Country & Country Gentleman--------------------------------------------------------------------------------DR         Peak         RMS     Duration Track--------------------------------------------------------------------------------DR7       -3.90 dB   -20.43 dB      2:57 01-Let It Be MeDR7       -3.74 dB   -19.08 dB      2:52 02-Last DateDR7       -3.87 dB   -20.18 dB      2:47 03-Almost PersuadedDR7       -3.32 dB   -18.50 dB      3:08 04-Take Me To Your WorldDR7       -6.16 dB   -22.05 dB      2:59 05-Release MeDR7       -3.32 dB   -20.40 dB      3:19 06-You Don't Know MeDR8       -3.49 dB   -20.42 dB      2:57 07-Phone Call To The PastDR7       -2.55 dB   -19.65 dB      2:28 08-I Can't Stop Loving YouDR6       -3.39 dB   -19.19 dB      3:03 09-Make The World Go AwayDR7       -4.54 dB   -20.27 dB      3:15 10-Stand By Your ManDR7       -4.23 dB   -20.48 dB      3:10 11-The End Of The WorldDR8       -3.48 dB   -20.99 dB      2:40 12-Delta DawnDR8       -4.35 dB   -22.16 dB      3:15 13-If You've Got The TimeDR8       -4.02 dB   -21.96 dB      3:04 14-A Picture Of Me (Without You)DR7       -3.65 dB   -20.91 dB      2:41 15-Your Cheatin' HeartDR7       -4.21 dB   -21.88 dB      2:53 16-For The Good TimesDR7       -1.92 dB   -19.40 dB      2:59 17-Take Me Home, Country RoadsDR8       -2.81 dB   -21.39 dB      2:32 18-Come Live With MeDR7       -3.53 dB   -20.92 dB      2:29 19-With One ExceptionDR8       -3.05 dB   -21.93 dB      2:38 20-The Ways To Love A ManDR7       -2.94 dB   -21.09 dB      5:00 21-Medley (All His Children)--------------------------------------------------------------------------------Number of tracks:  21Official DR value: DR7Samplerate:        2822400 Hz / PCM Samplerate: 88200 HzChannels:          6Bits per sample:   1Bitrate:           16934 kbpsCodec:             DST64================================================================================--------------------------------------------------------------------------------Analyzed: Henry Mancini / Mancini Country & Country Gentleman--------------------------------------------------------------------------------DR         Peak         RMS     Duration Track--------------------------------------------------------------------------------DR11      -4.91 dB   -19.78 dB      2:57 01-Let It Be MeDR11      -5.00 dB   -18.54 dB      2:52 02-Last DateDR12      -3.66 dB   -19.35 dB      2:47 03-Almost PersuadedDR11      -4.93 dB   -19.54 dB      3:08 04-Take Me To Your WorldDR11      -5.65 dB   -20.40 dB      2:59 05-Release MeDR12      -5.88 dB   -20.72 dB      3:19 06-You Don't Know MeDR12      -4.63 dB   -20.28 dB      2:57 07-Phone Call To The PastDR11      -5.89 dB   -20.55 dB      2:28 08-I Can't Stop Loving YouDR10      -5.35 dB   -19.14 dB      3:03 09-Make The World Go AwayDR11      -5.78 dB   -20.10 dB      3:15 10-Stand By Your ManDR11      -6.34 dB   -20.87 dB      3:10 11-The End Of The WorldDR12      -2.78 dB   -18.63 dB      2:40 12-Delta DawnDR12      -3.89 dB   -19.43 dB      3:15 13-If You've Got The TimeDR12      -3.99 dB   -19.57 dB      3:04 14-A Picture Of Me (Without You)DR12      -4.65 dB   -19.32 dB      2:41 15-Your Cheatin' HeartDR11      -4.89 dB   -20.28 dB      2:53 16-For The Good TimesDR12      -3.18 dB   -18.25 dB      2:59 17-Take Me Home, Country RoadsDR12      -5.82 dB   -21.73 dB      2:32 18-Come Live With MeDR13      -4.56 dB   -21.09 dB      2:29 19-With One ExceptionDR13      -2.73 dB   -20.30 dB      2:38 20-The Ways To Love A ManDR12      -4.43 dB   -19.48 dB      5:00 21-Medley (All His Children)--------------------------------------------------------------------------------Number of tracks:  21Official DR value: DR12Samplerate:        2822400 Hz / PCM Samplerate: 88200 HzChannels:          2Bits per sample:   1Bitrate:           5645 kbpsCodec:             DST64================================================================================

Спектр частот

Исполнитель: Henry Mancini, His Piano, Orchestra & Chorus
Источник (релизер): HRAudio.net

To download the content you need:
1. Download and install torrent client [for Windows] or for mobile system
2. Click on [Download]
Attention.
If the test YOU are NOT a ROBOT - does not work, then You are using an outdated browser.
Install the current browser and click on [Download]

Do not work with Yandex browser. Uploading files to them is erroneous.
Security: torrent client is allowed by Kaspersky.

[en.asmlocator.ru].t436124.torrent 
Torrent: Registered [ 2017-11-13 03:20 ] · 5D5AFE8815600DE82A2CE07CD38EC3B62D952A77

Download .torrent

Download

14 KB

Status: checked
Completed: 2 times
Size: 2.71 GB
terms.php
[Profile] [PM]
Display posts:    
Reply to topic

Current time is: 31-May 14:04

All times are UTC ± 0



You cannot post new topics in this forum
You cannot reply to topics in this forum
You cannot edit your posts in this forum
You cannot delete your posts in this forum
You cannot vote in polls in this forum
You cannot attach files in this forum
You can download files in this forum
Верим фактам, а не вранью Путина! Факт, что Правительство ведёт Россию к истреблению.
Так как численность населения падает, даже не смотря на приток эмигрантов!
Русская нация вымирает и вырождается, смешиваясь с эмигрантами!
Факт, что военных и граждан предприятий заставляют голосовать за партию Единая Россия и Путина
ПОД СТРАХОМ УВОЛЬНЕНИЯ!
Нам не нужно Правительство, блокирующее личную жизнь, интернет, нарушающее сохранность данных.
Все эти действия финансируются за счёт народа!