Клоуны-убийцы из далёкого космоса / Killer Klowns from Outer Space (Стивен Чиодо / Stephen Chiodo) [1987, США, ужасы, фантастика, комедия, BDRip-AVC] DVO (НТВ+) + MVO (СТС) + AVO (Александр Кашкин) + Sub Eng + Original Eng

Reply to topic
DL-List and Torrent activity
Size:  2.29 GB   |    Registered:  4 years 3 months   |    Completed:  0 times

Seeder not seen: Never

 
   
 
 
Author Message

star21 ®

Gender: Female

Longevity: 4 years 4 months

Posts: 551945

Location: Екатеринбург

Post 01-Dec-2015 13:55

[Quote]

Клоуны-убийцы из далёкого космоса / Killer Klowns from Outer Space
Страна: США
Жанр: ужасы, фантастика, комедия
Год выпуска: 1987
Продолжительность: 01:26:11
Перевод 1: Профессиональный (двухголосый закадровый) НТВ+
Перевод 2: Профессиональный (многоголосый закадровый) СТС
Перевод 3: Авторский (одноголосый закадровый) Александр Кашкин отдельным файлом
Cубтитры: английские
Оригинальная аудиодорожка: английский
Режиссер: Стивен Чиодо / Stephen Chiodo
В ролях: Грант Крамер, Сюзанн Снайдер, Джон Аллен Нельсон, Джон Вернон, Майкл С. Сигел, Питер Ликасси, Ройал Дэно, Кристофер Титус, Ирен Майклс, Карла Сью Крулл...
Описание: Парочка влюбленных замечает в небе летящий объект, траектория падения которого явно указывает на близлежащий лес. Желая посмотреть на упавший метеорит, парочка отправляется на предполагаемое место падения и обнаруживает там цирковой шатер, в котором к нам на Землю прилетели клоуны-убийцы из космоса! Их цель — заготовить как можно больше землян в качестве… провианта.
Доп. информация:
Переводы: НТВ+, СТС, с раздачи .
Сэмпл: http://multi-up.com/1061814
Качество видео: BDRip-AVC
Формат видео: MKV
Видео: 1120x608 (16:9), 23.976 fps, AVC, ~3000 Kbps, 0.184 bits/pixel
Аудио 1: Russian, 48.0 KHz, AC3, 2 ch, 192 Kbps - НТВ+
Аудио 2: Russian, 48.0 KHz, AC3, 2 ch, 192 Kbps - СТС
Аудио 3: Russian, 48.0 KHz, AC3, 2 ch, 192 Kbps - Александр Кашкин отдельным файлом
Аудио 4: English, 48.0 KHz, AC3, 2 ch, 224 Kbps

Log

avs4x264.exe: -L x264_64.exe --pass 2 --bitrate 3000 --preset medium --ref 10 --deblock -1:-1 --merange 32 --bframes 10 --direct auto --b-adapt 2 --trellis 2 --no-fast-pskip --psy-rd 1.00:0.10 --partitions all --subme 10 --me umh --rc-lookahead 50 --sar 1:1 --stats
raw [info]: 1120x608p 1:1 @ 24000/1001 fps (cfr)
x264 [info]: using SAR=1/1
x264 [info]: using cpu capabilities: MMX2 SSE2Fast LZCNT
x264 [info]: profile High, level 4.0
x264 [info]: frame I:877 Avg QP:18.67 size: 86666
x264 [info]: frame P:23189 Avg QP:21.41 size: 28067
x264 [info]: frame B:99909 Avg QP:23.11 size: 12123
x264 [info]: consecutive B-frames: 1.2% 1.2% 4.8% 11.9% 15.0% 45.7% 6.7% 3.0% 4.9% 2.5% 3.0%
x264 [info]: mb I I16..4: 3.8% 85.8% 10.3%
x264 [info]: mb P I16..4: 0.5% 9.1% 0.9% P16..4: 48.3% 21.6% 15.6% 0.2% 0.0% skip: 3.7%
x264 [info]: mb B I16..4: 0.0% 1.0% 0.1% B16..8: 48.4% 11.5% 2.4% direct: 7.3% skip:29.4% L0:49.2% L1:45.8% BI: 5.0%
x264 [info]: 8x8 transform intra:87.5% inter:73.2%
x264 [info]: direct mvs spatial:98.6% temporal:1.4%
x264 [info]: coded y,uvDC,uvAC intra: 93.4% 79.6% 46.1% inter: 35.1% 27.2% 1.8%
x264 [info]: i16 v,h,dc,p: 36% 19% 15% 30%
x264 [info]: i8 v,h,dc,ddl,ddr,vr,hd,vl,hu: 8% 6% 4% 12% 17% 16% 14% 12% 11%
x264 [info]: i4 v,h,dc,ddl,ddr,vr,hd,vl,hu: 9% 6% 3% 10% 16% 17% 14% 13% 12%
x264 [info]: i8c dc,h,v,p: 38% 23% 21% 19%
x264 [info]: Weighted P-Frames: Y:6.2% UV:2.6%
x264 [info]: ref P L0: 36.7% 9.5% 20.1% 8.0% 7.5% 5.1% 5.1% 2.6% 2.8% 2.3% 0.3% 0.0%
x264 [info]: ref B L0: 56.7% 16.2% 9.6% 5.4% 4.1% 3.6% 2.9% 1.1% 0.4%
x264 [info]: ref B L1: 87.9% 12.1%
x264 [info]: kb/s:2998.46
x264 [total]: encoded 123975 frames, 5.85 fps, 2998.46 kb/s

MediaInfo

General
Unique ID : 226789745837143807771420803772114604446 (0xAA9E1DC3228A12B4AC902924C095119E)
Complete name : C:\Killer Klowns from Outer Space\Killer Klowns from Outer Space.mkv
Format : Matroska
Format version : Version 4 / Version 2
File size : 2.17 GiB
Duration : 1h 26mn
Overall bit rate : 3 609 Kbps
Encoded date : UTC 2015-08-08 12:24:29
Writing application : mkvmerge v8.1.0 ('Psychedelic Postcard') 64bit
Writing library : libebml v1.3.1 + libmatroska v1.4.2
DURATION : 01:25:13.900000000
NUMBER_OF_FRAMES : 1131
NUMBER_OF_BYTES : 37596
_STATISTICS_WRITING_APP : mkvmerge v8.1.0 ('Psychedelic Postcard') 64bit
_STATISTICS_WRITING_DATE_UT : 2015-08-08 12:24:29
_STATISTICS_TAGS : BPS DURATION NUMBER_OF_FRAMES NUMBER_OF_BYTES
Video
ID : 1
Format : AVC
Format/Info : Advanced Video Codec
Format profile : High@L4
Format settings, CABAC : Yes
Format settings, ReFrames : 10 frames
Codec ID : V_MPEG4/ISO/AVC
Duration : 1h 26mn
Bit rate : 3 000 Kbps
Width : 1 120 pixels
Height : 608 pixels
Display aspect ratio : 1.85:1
Frame rate mode : Constant
Frame rate : 23.976 fps
Color space : YUV
Chroma subsampling : 4:2:0
Bit depth : 8 bits
Scan type : Progressive
Bits/(Pixel*Frame) : 0.184
Stream size : 1.76 GiB (81%)
Writing library : x264 core 146 r2538 121396c
Encoding settings : cabac=1 / ref=10 / deblock=1:-1:-1 / analyse=0x3:0x133 / me=umh / subme=10 / psy=1 / psy_rd=1.00:0.10 / mixed_ref=1 / me_range=32 / chroma_me=1 / trellis=2 / 8x8dct=1 / cqm=0 / deadzone=21,11 / fast_pskip=0 / chroma_qp_offset=-3 / threads=6 / lookahead_threads=1 / sliced_threads=0 / nr=0 / decimate=1 / interlaced=0 / bluray_compat=0 / constrained_intra=0 / bframes=10 / b_pyramid=2 / b_adapt=2 / b_bias=0 / direct=3 / weightb=1 / open_gop=0 / weightp=2 / keyint=250 / keyint_min=23 / scenecut=40 / intra_refresh=0 / rc_lookahead=50 / rc=2pass / mbtree=1 / bitrate=3000 / ratetol=1.0 / qcomp=0.60 / qpmin=0 / qpmax=69 / qpstep=4 / cplxblur=20.0 / qblur=0.5 / ip_ratio=1.40 / aq=1:1.00
Language : English
Default : Yes
Forced : No
Audio #1
ID : 2
Format : AC-3
Format/Info : Audio Coding 3
Mode extension : CM (complete main)
Format settings, Endianness : Big
Codec ID : A_AC3
Duration : 1h 26mn
Bit rate mode : Constant
Bit rate : 192 Kbps
Channel(s) : 2 channels
Channel positions : Front: L R
Sampling rate : 48.0 KHz
Compression mode : Lossy
Stream size : 118 MiB (5%)
Title : НТВ+
Language : Russian
Default : Yes
Forced : No
Audio #2
ID : 3
Format : AC-3
Format/Info : Audio Coding 3
Mode extension : CM (complete main)
Format settings, Endianness : Big
Codec ID : A_AC3
Duration : 1h 26mn
Bit rate mode : Constant
Bit rate : 192 Kbps
Channel(s) : 2 channels
Channel positions : Front: L R
Sampling rate : 48.0 KHz
Compression mode : Lossy
Stream size : 118 MiB (5%)
Title : СТС
Language : Russian
Default : No
Forced : No
Audio #3
ID : 4
Format : AC-3
Format/Info : Audio Coding 3
Mode extension : CM (complete main)
Format settings, Endianness : Big
Codec ID : A_AC3
Duration : 1h 26mn
Bit rate mode : Constant
Bit rate : 224 Kbps
Channel(s) : 2 channels
Channel positions : Front: L R
Sampling rate : 48.0 KHz
Compression mode : Lossy
Stream size : 138 MiB (6%)
Language : English
Default : No
Forced : No
Text
ID : 5
Format : UTF-8
Codec ID : S_TEXT/UTF8
Codec ID/Info : UTF-8 Plain Text
Language : English
Default : No
Forced : No
Menu
00:00:00.000 : en:
00:04:41.906 : en:
00:09:50.131 : en:
00:16:21.605 : en:
00:18:54.216 : en:
00:20:08.582 : en:
00:30:58.398 : en:
00:34:10.673 : en:
00:39:43.297 : en:
00:47:52.619 : en:
00:55:45.633 : en:
01:02:33.166 : en:
01:08:35.152 : en:
01:13:23.315 : en:
01:15:30.567 : en:
01:21:18.373 : en:

Скриншоты

To download the content you need:
1. Download and install torrent client [for Windows] or for mobile system
2. Click on [Download]
Attention.
If the test YOU are NOT a ROBOT - does not work, then You are using an outdated browser.
Install the current browser and click on [Download]

Do not work with Yandex browser. Uploading files to them is erroneous.
Security: torrent client is allowed by Kaspersky.

[en.asmlocator.ru].t4358.torrent 
Torrent: Registered [ 2015-12-01 13:55 ] · 7BFE2220945C4FA9CD7948491A7196E1BB12E3EB

Download .torrent

Download

12 KB

Status: checked
Completed: 0 times
Size: 2.29 GB
terms.php
[Profile] [PM]
Display posts:    
Reply to topic

Current time is: 29-Mar 00:10

All times are UTC ± 0



You cannot post new topics in this forum
You cannot reply to topics in this forum
You cannot edit your posts in this forum
You cannot delete your posts in this forum
You cannot vote in polls in this forum
You cannot attach files in this forum
You can download files in this forum
Верим фактам, а не вранью Путина! Факт, что Правительство ведёт Россию к истреблению.
Так как численность населения падает, даже не смотря на приток эмигрантов!
Русская нация вымирает и вырождается, смешиваясь с эмигрантами!
Факт, что военных и граждан предприятий заставляют голосовать за партию Единая Россия и Путина
ПОД СТРАХОМ УВОЛЬНЕНИЯ!
Нам не нужно Правительство, блокирующее личную жизнь, интернет, нарушающее сохранность данных.
Все эти действия финансируются за счёт народа!