Голубая молния / The Blue Lightning (Ли Филипс / Lee Philips) [1986, Австралия, Боевик, SATRip] DVO (НТВ)

Reply to topic
DL-List and Torrent activity
Size:  1.13 GB   |    Registered:  4 years 5 months   |    Completed:  1 time
DL-List: None

Seeders:

Username ULR UL DL UL speed DL speed
Guest 0 0- 0- 0- 0-
Guest 0 0- 0- 0- 0-
shows data only for the current session
 
   
 
 
Author Message

star21 ®

Gender: Female

Longevity: 4 years 6 months

Posts: 551945

Location: Екатеринбург

Post 01-Dec-2015 13:55

[Quote]

Голубая молния / The Blue Lightning
Страна: Австралия
Жанр: Боевик
Год выпуска: 1986
Продолжительность: 1:29:21
Перевод: Профессиональный (двухголосый закадровый) НТВ
Cубтитры: нет
Режиссер: Ли Филипс / Lee Philips
В ролях: Сэм Эллиотт, Ребекка Гиллинг, Джон Майллон, Robert Coleby, Макс Фиппс, Роберт Калп, Ральф Коттерилл, Джек Дэвис, Рэй Мигер, Майкл Карман
Описание: Частный детектив Харри борется против преступника Лестера в австралийской провинции с целью завладеть бесценным опалом.
Доп. информация: Дорога синхронизирована из раздачи Гость
Сэмпл: https://yadi.sk/i/hUHIhaIviLt9J
Качество видео: SATRip
Формат видео: AVI
Видео: XviD MPEG-4 , 720x544 (1.32:1) , 25.000 fps , 1611 kbps avg
Аудио: AC3 , 48 kHz , 192.00 kbps avg , 2/0 (L,R) ch

MediaInfo

Complete name Голубая молния 1986.avi
Format : AVI
Format/Info : Audio Video Interleave
File size : 1.13 GiB
Duration : 1h 29mn
Overall bit rate : 1 814 Kbps
Video
ID : 0
Format : MPEG-4 Visual
Format profile : Advanced Simple@L5
Format settings, BVOP : 1
Format settings, QPel : No
Format settings, GMC : No warppoints
Format settings, Matrix : Default (H.263)
Codec ID : XVID
Codec ID/Hint : XviD
Duration : 1h 29mn
Bit rate : 1 612 Kbps
Width : 720 pixels
Height : 544 pixels
Display aspect ratio : 4:3
Frame rate : 25.000 fps
Color space : YUV
Chroma subsampling : 4:2:0
Bit depth : 8 bits
Scan type : Progressive
Compression mode : Lossy
Bits/(Pixel*Frame) : 0.165
Stream size : 1.01 GiB (89%)
Writing library : XviD 1.2.1 (UTC 2008-12-04)
Audio
ID : 1
Format : AC-3
Format/Info : Audio Coding 3
Mode extension : CM (complete main)
Format settings, Endianness : Big
Codec ID : 2000
Duration : 1h 29mn
Bit rate mode : Constant
Bit rate : 192 Kbps
Channel(s) : 2 channels
Channel positions : Front: L R
Sampling rate : 48.0 KHz
Bit depth : 16 bits
Compression mode : Lossy
Stream size : 123 MiB (11%)
Alignment : Aligned on interleaves
Interleave, duration : 40 ms (1.00 video frame)
Interleave, preload duratio : 512 ms

Скриншоты

To download the content you need:
1. Download and install torrent client [for Windows] or for mobile system
2. Click on [Download]
Attention.
If the test YOU are NOT a ROBOT - does not work, then You are using an outdated browser.
Install the current browser and click on [Download]

Do not work with Yandex browser. Uploading files to them is erroneous.
Security: torrent client is allowed by Kaspersky.

[en.asmlocator.ru].t4356.torrent 
Torrent: Registered [ 2015-12-01 13:55 ] · 6B623178D2A1F071E32A5DAF87614613BFEECC1D

Download .torrent

Download

12 KB

Status: checked
Completed: 1 times
Size: 1.13 GB
terms.php
[Profile] [PM]
Display posts:    
Reply to topic

Current time is: 29-May 09:22

All times are UTC ± 0



You cannot post new topics in this forum
You cannot reply to topics in this forum
You cannot edit your posts in this forum
You cannot delete your posts in this forum
You cannot vote in polls in this forum
You cannot attach files in this forum
You can download files in this forum
Верим фактам, а не вранью Путина! Факт, что Правительство ведёт Россию к истреблению.
Так как численность населения падает, даже не смотря на приток эмигрантов!
Русская нация вымирает и вырождается, смешиваясь с эмигрантами!
Факт, что военных и граждан предприятий заставляют голосовать за партию Единая Россия и Путина
ПОД СТРАХОМ УВОЛЬНЕНИЯ!
Нам не нужно Правительство, блокирующее личную жизнь, интернет, нарушающее сохранность данных.
Все эти действия финансируются за счёт народа!