Муха 2 / The Fly II (Крис Уолас / Chris Walas) [1989, США, ужасы, фантастика, HDTVRip] MVO (1 канал)

Reply to topic
DL-List and Torrent activity
Size:  1.37 GB   |    Registered:  4 years 3 months   |    Completed:  0 times

Seeder not seen: Never

 
   
 
 
Author Message

star21 ®

Gender: Female

Longevity: 4 years 4 months

Posts: 551945

Location: Екатеринбург

Post 01-Dec-2015 13:55

[Quote]

Муха 2 / The Fly II
Страна: США
Жанр: ужасы, фантастика
Год выпуска: 1989
Продолжительность: 01:37:30
Перевод: Профессиональный (многоголосый закадровый) 1 канал
Cубтитры: нет
Оригинальная аудиодорожка: нет
Режиссер: Крис Уолас / Chris Walas
В ролях: Эрик Штолц /Eric Stoltz/, Дэфни Зунига /Daphne Zuniga/, Ли Ричардсон /Lee Richardson/, Джон Гец /John Getz/, Фрэнк Тернер /Frank Turner/, Энн Мари Ли /Anne Marie Lee/
Описание: С виду Мартин выглядит как совершенно нормальный, здоровый молодой человек. Однако, под обыкновенным внешним обликом скрывается самый необыкновенный из когда — либо живших на земле людей.
Во — первых, он гений. Во — вторых, он взрослый мужчина, несмотря на то, что ему всего пять лет. Но что еще более интересно, Мартин — сын человека — мухи, ученого Реда Брандела, чей генетический код был изменен в ходе неудавшегося эксперимента.
Пройдет какое — то время, и эта генная мутация в организме Мартина даст о себе знать и выйдет из состояния анабиоза. Мартину предстоит пережить самую ужасающую трансформацию, которая когда — либо происходила с организмом человека.
Доп. информация: Рип с канала Первый HD. Из видео удален логотип канала, остались послерекламные вставки с названием фильма. Наполнение кадра немного больше, чем на DVD и картинка почетче http://screenshotcomparison.com/comparison/138366
Сэмпл: http://multi-up.com/1062320
Качество видео: HDTVRip
Формат видео: AVI
Видео: MPEG4, XviD, 720x400 (16:9), 25.000 fps, 1 809 Kbps (0.251 bit/pixel)
Аудио: AC-3, 48.0 KHz, 2 ch, 192 Kbps, CBR - русский

MediaInfo

Общее
Полное имя : K:\Муха 2.avi
Формат : AVI
Формат/Информация : Audio Video Interleave
Размер файла : 1,37 Гбайт
Продолжительность : 1 ч. 37 м.
Общий поток : 2011 Кбит/сек
Название фильма : Муха 2 / The Fly II (1989)
Программа кодирования : VirtualDubMod 1.5.10.2 (build 2540/release)
Библиотека кодирования : VirtualDubMod build 2540/release
Авторское право : miha2154
Видео
Идентификатор : 0
Формат : MPEG-4 Visual
Профиль формата : Advanced Simple@L5
Параметр BVOP формата : 1
Параметр QPel формата : Нет
Параметр GMC формата : Без точки перехода
Параметр матрицы формата : Выборочная
Идентификатор кодека : XVID
Идентификатор кодека/Подсказка : XviD
Продолжительность : 1 ч. 37 м.
Битрейт : 1809 Кбит/сек
Ширина : 720 пикселей
Высота : 400 пикселей
Соотношение сторон : 16:9
Частота кадров : 25,000 кадров/сек
Цветовое пространство : YUV
Субдискретизация насыщенности : 4:2:0
Битовая глубина : 8 бит
Тип развёртки : Прогрессивная
Метод сжатия : С потерями
Бит/(Пиксели*Кадры) : 0.251
Размер потока : 1,23 Гбайт (90%)
Библиотека кодирования : XviD 65
Аудио
Идентификатор : 1
Формат : AC-3
Формат/Информация : Audio Coding 3
Расширение режима : CM (complete main)
Параметр Endianness формата : Big
Идентификатор кодека : 2000
Продолжительность : 1 ч. 37 м.
Вид битрейта : Постоянный
Битрейт : 192 Кбит/сек
Каналы : 2 канала
Расположение каналов : Front: L R
Частота : 48,0 КГц
Метод сжатия : С потерями
Размер потока : 134 Мбайт (10%)
Выравнивание : Разделение по промежуткам
Продолжительность промежутка : 40 мс. (1,00 видеокадр)
Время предзагрузки промежутка : 500 мс.
Заголовок : Профессиональный (многоголосый закадровый) 1 канал

Скриншоты


To download the content you need:
1. Download and install torrent client [for Windows] or for mobile system
2. Click on [Download]
Attention.
If the test YOU are NOT a ROBOT - does not work, then You are using an outdated browser.
Install the current browser and click on [Download]

Do not work with Yandex browser. Uploading files to them is erroneous.
Security: torrent client is allowed by Kaspersky.

[en.asmlocator.ru].t4351.torrent 
Torrent: Registered [ 2015-12-01 13:55 ] · 0C6952FEF6B22E74147B65E3E02F04F62F15CCFE

Download .torrent

Download

14 KB

Status: checked
Completed: 0 times
Size: 1.37 GB
terms.php
[Profile] [PM]
Display posts:    
Reply to topic

Current time is: 31-Mar 19:05

All times are UTC ± 0



You cannot post new topics in this forum
You cannot reply to topics in this forum
You cannot edit your posts in this forum
You cannot delete your posts in this forum
You cannot vote in polls in this forum
You cannot attach files in this forum
You can download files in this forum
Верим фактам, а не вранью Путина! Факт, что Правительство ведёт Россию к истреблению.
Так как численность населения падает, даже не смотря на приток эмигрантов!
Русская нация вымирает и вырождается, смешиваясь с эмигрантами!
Факт, что военных и граждан предприятий заставляют голосовать за партию Единая Россия и Путина
ПОД СТРАХОМ УВОЛЬНЕНИЯ!
Нам не нужно Правительство, блокирующее личную жизнь, интернет, нарушающее сохранность данных.
Все эти действия финансируются за счёт народа!