Возвращение Чёрного скакуна / The Black Stallion Returns (Роберт Далва / Robert Dalva) [1983, США, приключения, семейный, WEB-DLRip] DVO (НТВ+) + Original Eng + Sub (Rus, Eng)

Reply to topic
DL-List and Torrent activity
Size:  1.46 GB   |    Registered:  4 years 4 months   |    Completed:  0 times

Seeder not seen: Never

 
   
 
 
Author Message

star21 ®

Gender: Female

Longevity: 4 years 4 months

Posts: 551945

Location: Екатеринбург

Post 01-Dec-2015 13:55

[Quote]

Возвращение Чёрного скакуна / The Black Stallion Returns- Страна: США
Студия: Zoetrope Studios | MGM
Жанр: приключения, семейный
Год выпуска: 1983
Продолжительность: 01:42:58
Перевод: Профессиональный (двухголосый закадровый) НТВ+ (Перевод Юрия Сербина, текст читают Наталья Казначеева, Михаил Тихонов)
Cубтитры: Русские, English
Оригинальная аудиодорожка: английский
Режиссер: Роберт Далва / Robert Dalva
В ролях: Келли Рено, Винсент Спано, Аллен Гарфилд, Вуди Строуд, Ферди Мэйн, Джоди Телен, Тери Гарр, Догми Ларби, Анджело Инфанти, Луиджи Меццанотте...
Описание: Продолжение знаменитой истории о крепкой дружбе маленького мальчика и его самого большого сокровища — вороного скакуна по кличке Чёрный. Чёрный — прославленный чемпион скачек, но для его владельца Алека, он — гораздо большее. Поэтому, когда таинственные иностранцы похищают прекрасное животное, для маленького мальчика это становится настоящей трагедией и он решает в одиночку отправиться на поиски своего друга...- [imdb]http://www.imdb.com/title/tt0085248[/imdb] | Сэмпл | группы-Тип релиза: WEB-DLRip
Контейнер: AVI
Видео: 720x384 (1.88:1), 23.976 fps, XviD ~1441 kbps, 0.22 bit/pixel
Аудио 1: Русский, 48.0 KHz, AC3, 2 ch, 192 kbps - Двухголосый закадровый | НТВ+
Аудио 2: English, 48.0 KHz, AC3, 6 ch, 384 kbps

MediaInfo

GeneralComplete name                            : The.Black.Stallion.Returns.1983.WEB-DLRip_Olu6ka.aviFormat                                   : AVIFormat/Info                              : Audio Video InterleaveFile size                                : 1.46 GiBDuration                                 : 1h 42mnOverall bit rate                         : 2 032 KbpsWriting application                      : VirtualDubModRus 1.5.10.2 (build 2542/release)Writing library                          : VirtualDubMod build 2542/release
VideoID : 0Format : MPEG-4 VisualFormat profile : Advanced Simple@L5Format settings, BVOP : 1Format settings, QPel : NoFormat settings, GMC : No warppointsFormat settings, Matrix : CustomCodec ID : XVIDCodec ID/Hint : XviDDuration : 1h 42mnBit rate : 1 442 KbpsWidth : 720 pixelsHeight : 384 pixelsDisplay aspect ratio : 1.85:1Frame rate : 23.976 fpsColor space : YUVChroma subsampling : 4:2:0Bit depth : 8 bitsScan type : ProgressiveCompression mode : LossyBits/(Pixel*Frame) : 0.218Stream size : 1.04 GiB (71%)Writing library : XviD 73
Audio #1ID : 1Format : AC-3Format/Info : Audio Coding 3Mode extension : CM (complete main)Format settings, Endianness : BigCodec ID : 2000Duration : 1h 42mnBit rate mode : ConstantBit rate : 192 KbpsChannel(s) : 2 channelsChannel positions : Front: L RSampling rate : 48.0 KHzBit depth : 16 bitsCompression mode : LossyStream size : 141 MiB (9%)Alignment : Split accross interleavesInterleave, duration : 42 ms (1.00 video frame)Interleave, preload duration : 500 ms
Audio #2ID : 2Format : AC-3Format/Info : Audio Coding 3Mode extension : CM (complete main)Format settings, Endianness : BigCodec ID : 2000Duration : 1h 42mnBit rate mode : ConstantBit rate : 384 KbpsChannel(s) : 6 channelsChannel positions : Front: L C R, Side: L R, LFESampling rate : 48.0 KHzBit depth : 16 bitsCompression mode : LossyStream size : 283 MiB (19%)Alignment : Split accross interleavesInterleave, duration : 42 ms (1.00 video frame)Interleave, preload duration : 500 ms
Спасибо xfiles за исходник!

To download the content you need:
1. Download and install torrent client [for Windows] or for mobile system
2. Click on [Download]
Attention.
If the test YOU are NOT a ROBOT - does not work, then You are using an outdated browser.
Install the current browser and click on [Download]

Do not work with Yandex browser. Uploading files to them is erroneous.
Security: torrent client is allowed by Kaspersky.

[en.asmlocator.ru].t4347.torrent 
Torrent: Registered [ 2015-12-01 13:55 ] · 193DC496A0312C521B54E84E37E2AA79492D1EDE

Download .torrent

Download

15 KB

Status: checked
Completed: 0 times
Size: 1.46 GB
terms.php
[Profile] [PM]
Display posts:    
Reply to topic

Current time is: 05-Apr 04:58

All times are UTC ± 0



You cannot post new topics in this forum
You cannot reply to topics in this forum
You cannot edit your posts in this forum
You cannot delete your posts in this forum
You cannot vote in polls in this forum
You cannot attach files in this forum
You can download files in this forum
Верим фактам, а не вранью Путина! Факт, что Правительство ведёт Россию к истреблению.
Так как численность населения падает, даже не смотря на приток эмигрантов!
Русская нация вымирает и вырождается, смешиваясь с эмигрантами!
Факт, что военных и граждан предприятий заставляют голосовать за партию Единая Россия и Путина
ПОД СТРАХОМ УВОЛЬНЕНИЯ!
Нам не нужно Правительство, блокирующее личную жизнь, интернет, нарушающее сохранность данных.
Все эти действия финансируются за счёт народа!