Звездолёт Редвинг / Starship Redwing / Lorca and the Outlaws (Роджер Кристиан / Roger Christian) [1984, Великобритания, Австралия, Фантастика, VHSRip-AVC] Sub Rus + Original Ger

Reply to topic
DL-List and Torrent activity
Size:  1.13 GB   |    Registered:  4 years 3 months   |    Completed:  0 times

Seeder not seen: 2 years 11 months

 
   
 
 
Author Message

star21 ®

Gender: Female

Longevity: 4 years 4 months

Posts: 551945

Location: Екатеринбург

Post 01-Dec-2015 13:55

[Quote]

Звездолёт Редвинг / Starship Redwing / Lorca and the Outlaws
Страна: Великобритания, Австралия
Жанр: Фантастика
Год выпуска: 1984
Продолжительность: 01:35:14
Перевод: Субтитры
Cубтитры: русские
Формат субтитров: srt
Оригинальная аудиодорожка: английский
Режиссер: Роджер Кристиан / Roger Christian
В ролях: Адам Кокберн, Тайлер Коппин, Ральф Коттерилл, Ребека Эльмалоглу, Тами Джеймс, Хью Кияс-Бёрн, Мишель Линли, Питер Моррис, Бен Филипс
Описание: Жизнь на горнодобывающей планете Ордесса трудная: условия жизни ужасные, у рабочих постоянно плохое настроение, а управляющие для подавления проявлений недовольства используют роботов. Но в недрах планеты существует движение сопротивления под руководством Лорки, который собирается изменить условия жизни на Ордессе. Тем временем руководители горнодобывающей корпорации решают заменить людей дроидами и приглашают с Земли наемного убийцу Дэнни, чтобы он уничтожил главу повстанцев. Смогут ли Лорка и его сторонники противостоять жестокому Дэнни и его помощникам-дроидам?…
Доп. информация: Похожий фильм «Чужая территория» (1981) с Шоном Коннери в главной роли. На международном кинофестивале «Fantasporto» картина номинировалась на Гран-при
Торрент перезалит: Дата 14.08.2015
Сэмпл: https://yadi.sk/i/q0RAz-P3iRuG3
Качество видео: VHSRip-AVC
Формат видео: MP4
Видео: 640x276 (2.35:1), 30.000fps, AVC, 1501 kbps, 0.283 bit/pixel
Аудио: 48 kHz, 192 kbps, AAC

MediaInfo

Формат : MPEG-4
Профиль формата : Base Media
Идентификатор кодека : isom
Размер файла : 1,13 Гбайт
Продолжительность : 1 ч. 35 м.
Общий поток : 1698 Кбит/сек
Дата кодирования : UTC 2015-08-12 08:36:52
Дата пометки : UTC 2015-08-12 08:36:52
Видео
Идентификатор : 2
Формат : AVC
Формат/Информация : Advanced Video Codec
Профиль формата : Baseline@L3
Параметр CABAC формата : Нет
Параметр ReFrames формата : 1 кадр
Параметр GOP формата : M=1, N=25
Режим смешивания : Container profile=Baseline@4.1
Идентификатор кодека : avc1
Идентификатор кодека/Информация : Advanced Video Coding
Продолжительность : 1 ч. 35 м.
Битрейт : 1501 Кбит/сек
Ширина : 640 пикселей
Высота : 276 пикселей
Соотношение сторон : 2,35:1
Режим частоты кадров : Постоянный
Частота кадров : 30,000 кадров/сек
Цветовое пространство : YUV
Субдискретизация насыщенности : 4:2:0
Битовая глубина : 8 бит
Тип развёртки : Прогрессивная
Бит/(Пиксели*Кадры) : 0.283
Размер потока : 1,00 Гбайт (88%)
Язык : English
Аудио
Идентификатор : 1
Формат : AAC
Формат/Информация : Advanced Audio Codec
Профиль формата : LC
Идентификатор кодека : 40
Продолжительность : 1 ч. 35 м.
Вид битрейта : Постоянный
Битрейт : 192 Кбит/сек
Каналы : 2 канала
Расположение каналов : Front: L R
Частота : 48,0 КГц
Метод сжатия : С потерями
Размер потока : 131 Мбайт (11%)
Язык : English

Скриншот c названием фильма

Скриншоты

To download the content you need:
1. Download and install torrent client [for Windows] or for mobile system
2. Click on [Download]
Attention.
If the test YOU are NOT a ROBOT - does not work, then You are using an outdated browser.
Install the current browser and click on [Download]

Do not work with Yandex browser. Uploading files to them is erroneous.
Security: torrent client is allowed by Kaspersky.

[en.asmlocator.ru].t4346.torrent 
Torrent: Registered [ 2015-12-01 13:55 ] · C88AD3924FE3561854715A48182F54471BF22785

Download .torrent

Download

12 KB

Status: checked
Completed: 0 times
Size: 1.13 GB
terms.php
[Profile] [PM]
Display posts:    
Reply to topic

Current time is: 31-Mar 18:50

All times are UTC ± 0



You cannot post new topics in this forum
You cannot reply to topics in this forum
You cannot edit your posts in this forum
You cannot delete your posts in this forum
You cannot vote in polls in this forum
You cannot attach files in this forum
You can download files in this forum
Верим фактам, а не вранью Путина! Факт, что Правительство ведёт Россию к истреблению.
Так как численность населения падает, даже не смотря на приток эмигрантов!
Русская нация вымирает и вырождается, смешиваясь с эмигрантами!
Факт, что военных и граждан предприятий заставляют голосовать за партию Единая Россия и Путина
ПОД СТРАХОМ УВОЛЬНЕНИЯ!
Нам не нужно Правительство, блокирующее личную жизнь, интернет, нарушающее сохранность данных.
Все эти действия финансируются за счёт народа!