Горец 2: Оживление / Highlander II: The Quickening (Рассел Малкэй / Russell Mulcahy) [1990, Великобритания, Франция, фантастика, LDRip] [Театральная версия] MVO (Нева 1) + AVO (С. Кузнецов)

Reply to topic
DL-List and Torrent activity
Size:  1.19 GB   |    Registered:  4 years 4 months   |    Completed:  2 times

Seeder not seen: 3 months 17 days

 
   
 
 
Author Message

star21 ®

Gender: Female

Longevity: 4 years 4 months

Posts: 551945

Location: Екатеринбург

Post 01-Dec-2015 13:55

[Quote]

Горец 2: Оживление / Горец 2: Сила жизни / Highlander II: The Quickening
Театральная версия
Страна: Великобритания, Франция
Жанр: фантастика, приключения
Год выпуска: 1990
Продолжительность: 01:29:52
Перевод 1: Профессиональный (многоголосый закадровый) Нева 1 - Екатеринбург Арт
Перевод 2: Авторский (одноголосый закадровый) Сергей Кузнецов
Cубтитры: нет
Оригинальная аудиодорожка: нет
Режиссер: Рассел Малкэй / Russell Mulcahy
В ролях: Кристофер Ламберт, Шон Коннери, Вирджиния Мэдсен, Майкл Айронсайд, Аллан Рич, Джон К. МакГинли
Описание: 1999 год: с истощением озонового слоя жизнь на земле становится опасной для людей, и Коннор Маклауд возглавляет строительство гигантского энергетического щита для защиты земного шара.
2034 год: использование щита могущественной корпорацией обрекает планету на экологическую катастрофу. Коннор Маклауд ведет жизнь простого смертного. Но когда Катана — правитель планеты Зейст, прародины всех бессмертных воинов, бросает вызов Горцу, Маклауд вновь обретает свою мистическую силу.
Он оживляет своего учителя Рамиреса, и они вступают в решающее сражение с прибывшим на Землю Катаной и с корпорацией для того, чтобы разрушить энергетический щит и вернуть планете солнечный свет.
Доп. информация:
Видеоряд под театральную версию взят с другого трекера.
За звуковую дорожку с переводом кинокомпании "Нева 1" с лицензионной VHS от Екатеринбург Арт благодарим Ansent.
За звуковую дорожку с авторским переводом С. Кузнецова большое спасибо 21Sepsis.
За синхронизацию обеих звуковых дорожек огромная благодарность JUSTKANT.
Данная версия фильма на трекере впервые!
Оба перевода также выложены впервые!

Сэмпл: https://www.sendspace.com/file/qhourd
Качество видео: LDRip
Формат видео: AVI
Видео: 640x480, 25.000 fps, MPEG-4 Visual, 1500 Kbps, XviD 1.1.2
Аудио 1: 48 KHz, AC3, 2 ch, 192 Kbps - MVO (Нева 1)
Аудио 2: 48 KHz, AC3, 2 ch, 192 Kbps - AVO (С. Кузнецов)

MediaInfo

General
Complete name : C:\Users\Горец 2.avi
Format : AVI
Format/Info : Audio Video Interleave
File size : 1.19 GiB
Duration : 1h 29mn
Overall bit rate : 1 898 Kbps
Writing application : VirtualDubMod 1.5.10.2 (build 2540/release)
Writing library : VirtualDubMod build 2540/release
Video
ID : 0
Format : MPEG-4 Visual
Format profile : Advanced Simple@L5
Format settings, BVOP : No
Format settings, QPel : No
Format settings, GMC : No warppoints
Format settings, Matrix : Default (MPEG)
Codec ID : XVID
Codec ID/Hint : XviD
Duration : 1h 29mn
Bit rate : 1 500 Kbps
Width : 640 pixels
Height : 480 pixels
Display aspect ratio : 4:3
Frame rate : 25.000 fps
Color space : YUV
Chroma subsampling : 4:2:0
Bit depth : 8 bits
Scan type : Progressive
Compression mode : Lossy
Bits/(Pixel*Frame) : 0.195
Stream size : 964 MiB (79%)
Writing library : XviD 1.1.2 (UTC 2006-11-01)
Audio #1
ID : 1
Format : AC-3
Format/Info : Audio Coding 3
Mode extension : CM (complete main)
Format settings, Endianness : Big
Codec ID : 2000
Duration : 1h 29mn
Bit rate mode : Constant
Bit rate : 192 Kbps
Channel(s) : 2 channels
Channel positions : Front: L R
Sampling rate : 48.0 KHz
Bit depth : 16 bits
Compression mode : Lossy
Stream size : 123 MiB (10%)
Alignment : Split accross interleaves
Interleave, duration : 40 ms (1.00 video frame)
Interleave, preload duration : 500 ms
Audio #2
ID : 2
Format : AC-3
Format/Info : Audio Coding 3
Mode extension : CM (complete main)
Format settings, Endianness : Big
Codec ID : 2000
Duration : 1h 29mn
Bit rate mode : Constant
Bit rate : 192 Kbps
Channel(s) : 2 channels
Channel positions : Front: L R
Sampling rate : 48.0 KHz
Bit depth : 16 bits
Compression mode : Lossy
Stream size : 123 MiB (10%)
Alignment : Split accross interleaves
Interleave, duration : 40 ms (1.00 video frame)
Interleave, preload duration : 500 ms

Скриншоты

To download the content you need:
1. Download and install torrent client [for Windows] or for mobile system
2. Click on [Download]
Attention.
If the test YOU are NOT a ROBOT - does not work, then You are using an outdated browser.
Install the current browser and click on [Download]

Do not work with Yandex browser. Uploading files to them is erroneous.
Security: torrent client is allowed by Kaspersky.

[en.asmlocator.ru].t4344.torrent 
Torrent: Registered [ 2015-12-01 13:55 ] · 56967130ACF74FD181643F55BFA62EC5E8D9EA2D

Download .torrent

Download

12 KB

Status: checked
Completed: 2 times
Size: 1.19 GB
terms.php
[Profile] [PM]
Display posts:    
Reply to topic

Current time is: 04-Apr 15:16

All times are UTC ± 0



You cannot post new topics in this forum
You cannot reply to topics in this forum
You cannot edit your posts in this forum
You cannot delete your posts in this forum
You cannot vote in polls in this forum
You cannot attach files in this forum
You can download files in this forum
Верим фактам, а не вранью Путина! Факт, что Правительство ведёт Россию к истреблению.
Так как численность населения падает, даже не смотря на приток эмигрантов!
Русская нация вымирает и вырождается, смешиваясь с эмигрантами!
Факт, что военных и граждан предприятий заставляют голосовать за партию Единая Россия и Путина
ПОД СТРАХОМ УВОЛЬНЕНИЯ!
Нам не нужно Правительство, блокирующее личную жизнь, интернет, нарушающее сохранность данных.
Все эти действия финансируются за счёт народа!