Доноры / B.O.R.N / Merchants of dead (Росс Хэйген / Ross Hagen) [1988, США, Триллер, DVDRip] AVO Карцев

Reply to topic
DL-List and Torrent activity
Size:  1.34 GB   |    Registered:  4 years 4 months   |    Completed:  1 time

Seeder not seen: 5 months 21 day

 
   
 
 
Author Message

star21 ®

Gender: Female

Longevity: 4 years 5 months

Posts: 551945

Location: Екатеринбург

Post 01-Dec-2015 13:55

[Quote]

Доноры / B.O.R.N / Merchants of dead
Страна: США
Жанр: Триллер
Год выпуска: 1988
Продолжительность: 1:25:28
Перевод: Авторский (одноголосый закадровый) П. Карцев
Cубтитры: нет
Режиссер: Росс Хэйген / Ross Hagen
В ролях: Хоук Хауэлл, Уильям Смит, Рэнс Хауард, Клинт Хауард, Росс Хэйген, П. Джей Соулз, Расс Тэмблин, Клэр Хэйген, Джонни Стюарт, Уэнди Кук, Аманда Блэйк, Стивен Барр
Описание: На черном рынке человеческих органов есть постоянный спрос. Поэтому подпольная лос — анджелесская фирма, руководимая Элизабет, имеет только одну проблему — срочный поиск свежего материала.
Очередными жертвами изуверов становятся дочери Бака Кэссиди, который, не найдя помощи у полицейских, вынужден сам спасать своих детей.
Доп. информация: За предоставленную дорогу благодарность Fikaloid
Сэмпл: https://www.sendspace.com/file/8t3j8n
Качество видео: DVDRip
Формат видео: AVI
Видео: XviD MPEG-4 , 640x480 (1.33:1) , 23.976 fps , 2 051 Kbps
Аудио: AC3 , 48 kHz , 192.00 kbps avg , 2/0 (L,R) ch

MediaInfo

Complete name Доноры 1988.avi
Format : AVI
Format/Info : Audio Video Interleave
File size : 1.34 GiB
Duration : 1h 25mn
Overall bit rate : 2 253 Kbps
Writing application : VirtualDubMod 1.5.10.3 | www.virtualdub-fr.org || (build 2550/release)
Writing library : VirtualDub build 35491/release
Video
ID : 0
Format : MPEG-4 Visual
Format profile : Advanced Simple@L5
Format settings, BVOP : 1
Format settings, QPel : No
Format settings, GMC : No warppoints
Format settings, Matrix : Default (MPEG)
Codec ID : XVID
Codec ID/Hint : XviD
Duration : 1h 25mn
Bit rate : 2 051 Kbps
Width : 640 pixels
Height : 480 pixels
Display aspect ratio : 4:3
Frame rate : 23.976 fps
Color space : YUV
Chroma subsampling : 4:2:0
Bit depth : 8 bits
Scan type : Progressive
Compression mode : Lossy
Bits/(Pixel*Frame) : 0.279
Stream size : 1.22 GiB (91%)
Writing library : XviD 1.2.1 (UTC 2008-12-04)
Audio
ID : 1
Format : AC-3
Format/Info : Audio Coding 3
Mode extension : CM (complete main)
Format settings, Endianness : Big
Codec ID : 2000
Duration : 1h 25mn
Bit rate mode : Constant
Bit rate : 192 Kbps
Channel(s) : 2 channels
Channel positions : Front: L R
Sampling rate : 48.0 KHz
Compression mode : Lossy
Stream size : 117 MiB (9%)
Alignment : Aligned on interleaves
Interleave, duration : 42 ms (1.00 video frame)
Interleave, preload duratio : 512 ms

Скриншоты

To download the content you need:
1. Download and install torrent client [for Windows] or for mobile system
2. Click on [Download]
Attention.
If the test YOU are NOT a ROBOT - does not work, then You are using an outdated browser.
Install the current browser and click on [Download]

Do not work with Yandex browser. Uploading files to them is erroneous.
Security: torrent client is allowed by Kaspersky.

[en.asmlocator.ru].t4343.torrent 
Torrent: Registered [ 2015-12-01 13:55 ] · 54BE8BC44D5A50AAED2C995968F1C076B17902E5

Download .torrent

Download

14 KB

Status: checked
Completed: 1 times
Size: 1.34 GB
terms.php
[Profile] [PM]
Display posts:    
Reply to topic

Current time is: 10-Apr 10:02

All times are UTC ± 0



You cannot post new topics in this forum
You cannot reply to topics in this forum
You cannot edit your posts in this forum
You cannot delete your posts in this forum
You cannot vote in polls in this forum
You cannot attach files in this forum
You can download files in this forum
Верим фактам, а не вранью Путина! Факт, что Правительство ведёт Россию к истреблению.
Так как численность населения падает, даже не смотря на приток эмигрантов!
Русская нация вымирает и вырождается, смешиваясь с эмигрантами!
Факт, что военных и граждан предприятий заставляют голосовать за партию Единая Россия и Путина
ПОД СТРАХОМ УВОЛЬНЕНИЯ!
Нам не нужно Правительство, блокирующее личную жизнь, интернет, нарушающее сохранность данных.
Все эти действия финансируются за счёт народа!