Знак доблести / Signum Laudis / The Medal (Мартин Голлы / Martin Hollý) [1980, Чехословакия, драма, военный, BDRip] Sub Rus + Original Cze

Reply to topic
DL-List and Torrent activity
Size:  1.46 GB   |    Registered:  4 years 3 months   |    Completed:  0 times

Seeder not seen: Never

 
   
 
 
Author Message

star21 ®

Gender: Female

Longevity: 4 years 4 months

Posts: 551945

Location: Екатеринбург

Post 01-Dec-2015 13:55

[Quote]

Знак доблести / Signum Laudis / The Medal
Страна: Чехословакия
Жанр: драма, военный
Год выпуска: 1980
Продолжительность: 01:28:40
Перевод: Субтитры
Cубтитры: русские
Оригинальная аудиодорожка: чешский

Режиссер: Мартин Голлы / Martin Hollý
В ролях: Владо Мюллер, Йозеф Блага, Илья Прахарж, Радован Лукавски, Иржи Кодет, Ольдржих Велен, Ладислав Фрей, Павел Зедничек, Мирослав Зоунар, Ян Скопечек
Описание: Первая мировая война на русском фронте. Для капрала Хоферика это возможность для карьерного роста. Солдат-фанатик выполняющий приказы вышестоящих без раздумий, но не забывающий и о себе. Его жестоким инициативам начинают опасно угрожать индивидуальные интересы и планы высшего офицерства...

Качество видео:
Формат видео: AVI
Видео: 640x480 (1.33:1), 24 fps, XviD build 73 ~2147 kbps avg, 0.29 bit/pixel
Аудио: 48 kHz, AC3 Dolby Digital, 2/0 (L,R) ch, ~192 kbps

Фрагмент субтитров

226
00:28:57,708 --> 00:29:01,665
- Ты мне скoлькo прoцентoв oтстегнешь?
- Пять?
227
00:29:02,291 --> 00:29:05,415
Ты бедный, пoтoму чтo экoнoмишь.
228
00:29:06,041 --> 00:29:09,582
Заплатишь мне пятьдесят прoцентoв
и будешь дoвoлен.
229
00:29:10,000 --> 00:29:12,915
Ты знаешь, какoй я адвoкат?
230
00:29:13,125 --> 00:29:15,624
Я развел пoлoвину Праги.
231
00:29:15,833 --> 00:29:19,374
У тебя будет десятикратная oкупаемoсть.
232
00:29:21,041 --> 00:29:24,165
Приведи мне пример свoих неприятнoстей.
233
00:29:25,208 --> 00:29:29,790
Скажем, купил я ялoвую кoбылу,
зная, чтo oна ялoвая.
234
00:29:30,000 --> 00:29:34,582
А пoтoм прoдал ее пoд видoм кoнематки.
И все этo раскрылoсь.
235
00:29:35,625 --> 00:29:36,665
А суд?
236
00:29:36,750 --> 00:29:39,874
Деньги вернуть,
oгрoмный штраф
237
00:29:40,208 --> 00:29:43,749
и на гoд oтняли лицензию.
238
00:29:45,208 --> 00:29:49,582
Если бы у тебя был я,
ты бы еще пoлучил кoмпенсацию.

MediaInfo

Общее
Полное имя : H:\Signum.Laudis.1980.bdrip_[1.46]_[teko]\Signum.Laudis.1980.bdrip_[1.46].avi
Формат : AVI
Формат/Информация : Audio Video Interleave
Размер файла : 1,45 Гбайт
Продолжительность : 1 ч. 28 м.
Общий поток : 2349 Кбит/сек
Программа кодирования : VirtualDubMod 1.5.10.3 | www.virtualdub-fr.org || (build 2550/release)
Библиотека кодирования : VirtualDubMod build 2550/release
Видео
Идентификатор : 0
Формат : MPEG-4 Visual
Профиль формата : Advanced Simple@L5
Параметр BVOP формата : 1
Параметр QPel формата : Нет
Параметр GMC формата : Без точки перехода
Параметр матрицы формата : Выборочная
Идентификатор кодека : XVID
Идентификатор кодека/Подсказка : XviD
Продолжительность : 1 ч. 28 м.
Битрейт : 2148 Кбит/сек
Ширина : 640 пикселей
Высота : 480 пикселей
Соотношение сторон : 4:3
Частота кадров : 24,000 кадра/сек
Цветовое пространство : YUV
Субдискретизация насыщенности : 4:2:0
Битовая глубина : 8 бит
Тип развёртки : Прогрессивная
Метод сжатия : С потерями
Бит/(Пиксели*Кадры) : 0.291
Размер потока : 1,33 Гбайт (91%)
Библиотека кодирования : XviD 73
Аудио
Идентификатор : 1
Формат : AC-3
Формат/Информация : Audio Coding 3
Расширение режима : CM (complete main)
Параметр Endianness формата : Big
Идентификатор кодека : 2000
Продолжительность : 1 ч. 28 м.
Вид битрейта : Постоянный
Битрейт : 192 Кбит/сек
Каналы : 2 канала
Расположение каналов : Front: L R
Частота : 48,0 КГц
Битовая глубина : 16 бит
Метод сжатия : С потерями
Размер потока : 122 Мбайт (8%)
Выравнивание : Разделение по промежуткам
Продолжительность промежутка : 42 мс. (1,00 видеокадр)
Время предзагрузки промежутка : 500 мс.
Релиз группы:
-
-

To download the content you need:
1. Download and install torrent client [for Windows] or for mobile system
2. Click on [Download]
Attention.
If the test YOU are NOT a ROBOT - does not work, then You are using an outdated browser.
Install the current browser and click on [Download]

Do not work with Yandex browser. Uploading files to them is erroneous.
Security: torrent client is allowed by Kaspersky.

[en.asmlocator.ru].t4342.torrent 
Torrent: Registered [ 2015-12-01 13:55 ] · 9AB24AF460F9AB40D01358F8CB9EA397D3D7CE6F

Download .torrent

Download

15 KB

Status: checked
Completed: 0 times
Size: 1.46 GB
terms.php
[Profile] [PM]
Display posts:    
Reply to topic

Current time is: 31-Mar 18:38

All times are UTC ± 0



You cannot post new topics in this forum
You cannot reply to topics in this forum
You cannot edit your posts in this forum
You cannot delete your posts in this forum
You cannot vote in polls in this forum
You cannot attach files in this forum
You can download files in this forum
Верим фактам, а не вранью Путина! Факт, что Правительство ведёт Россию к истреблению.
Так как численность населения падает, даже не смотря на приток эмигрантов!
Русская нация вымирает и вырождается, смешиваясь с эмигрантами!
Факт, что военных и граждан предприятий заставляют голосовать за партию Единая Россия и Путина
ПОД СТРАХОМ УВОЛЬНЕНИЯ!
Нам не нужно Правительство, блокирующее личную жизнь, интернет, нарушающее сохранность данных.
Все эти действия финансируются за счёт народа!