Муха / The Fly (Дэвид Кроненберг / David Cronenberg) [1986, США, Великобритания, Канада, ужасы, фантастика, мелодрама, LDRip] [Fullscreen] DVO (НТВ+) + 2хAVO (Михалёв, Горчаков)

Reply to topic
DL-List and Torrent activity
Size:  3.55 GB   |    Registered:  4 years 3 months   |    Completed:  0 times

Seeder not seen: Never

 
   
 
 
Author Message

star21 ®

Gender: Female

Longevity: 4 years 4 months

Posts: 551945

Location: Екатеринбург

Post 01-Dec-2015 13:55

[Quote]

МухаThe Fly- Страна: США, Великобритания, Канада
Жанр: ужасы, фантастика, мелодрама
Год выпуска: 1986
Продолжительность: 01:31:41-Перевод 1: Профессиональный (двухголосый, закадровый) НТВ+
Перевод 2: Авторский (одноголосый, закадровый)
Перевод 3: Авторский (одноголосый, закадровый)
Режиссер: Дэвид Кроненберг / David Cronenberg
В ролях: Джефф Голдблюм (Seth Brundle), Джина Дэвис (Veronica Quaife), Джон Гец (Stathis Borans), Джой Баушел (Tawny), Лесли Карлсон (Dr. Brent Cheevers), Джордж Чувало (Marky), Майкл Коупмен (2nd Man in Bar), Дэвид Кроненберг (Gynecologist), Кэрол Лазар (Nurse), Шон Хьюит (Clerk)-Описание: Талантливый и немного эксцентричный ученый Сет Брандл изучает проблемы телепортации. Начав с перемещения в пространстве неодушевленных предметов, гений от науки решает поэкспериментировать с живыми существами.
Воодушевленный удачным результатом опыта по телепортации обезьяны, он сам хочет стать объектом эксперимента. Но по воле случая в стерильную камеру залетает муха. Это маленькое насекомое навсегда меняет жизнь Сета — он становится другим. Другим существом…-[imdb]http://www.imdb.com/title/tt0091064[/imdb]
MPAA: R - Лицам до 17 лет обязательно присутствие взрослого-За оцифровку с лазердиска спасибо schafranek
Дорожка НТВ+ (Людмила Гнилова и Алексей Инжеватов) взята с Home Video (R.I.P.). Синхронизиована без перекодирования.
Исходники дорог Михалёва и Горчакова с этой . Спасибо miscalin11-Качество: LDRip
Контейнер: MPEG-TS
Видео: AVC, 720x576 (5:4), 3997 kbps, 25 fps, 0,386 bpp
Аудио №1: 48 kHz, AC3 Dolby Digital, 2/0 (L,R) ch, ~384.00 kbps avg - НТВ+
Аудио №2: 48 kHz, AC3 Dolby Digital, 3/2 (L,C,R,l,r) + LFE ch, ~448 kbps - Михалёв
Аудио №3: 48 kHz, AC3 Dolby Digital, 3/2 (L,C,R,l,r) + LFE ch, ~448 kbps - Горчаков-СЭМПЛ - https://yadi.sk/i/JAdW_5GSiUopt-

Скриншоты

Скриншоты сравнения

BDRip===========================>TV-VHSRip=======================>LDRip







MediaInfo

General
ID : 1 (0x1)
Complete name : D:\The.Fly.1986.FS.LDRip.ts
Format : MPEG-TS
File size : 3.55 GiB
Duration : 1h 31mn
Overall bit rate mode : Variable
Overall bit rate : 5 544 Kbps
Maximum Overall bit rate : 35.5 Mbps
Video
ID : 4113 (0x1011)
Menu ID : 1 (0x1)
Format : AVC
Format/Info : Advanced Video Codec
Format profile : High@L4
Format settings, CABAC : Yes
Format settings, ReFrames : 6 frames
Codec ID : 27
Duration : 1h 31mn
Bit rate mode : Variable
Bit rate : 3 977 Kbps
Maximum bit rate : 40.0 Mbps
Width : 720 pixels
Height : 576 pixels
Display aspect ratio : 5:4
Frame rate : 25.000 fps
Standard : PAL
Color space : YUV
Chroma subsampling : 4:2:0
Bit depth : 8 bits
Scan type : Progressive
Bits/(Pixel*Frame) : 0.384
Stream size : 2.55 GiB (72%)
Audio #1
ID : 4352 (0x1100)
Menu ID : 1 (0x1)
Format : AC-3
Format/Info : Audio Coding 3
Mode extension : CM (complete main)
Format settings, Endianness : Big
Codec ID : 129
Duration : 1h 31mn
Bit rate mode : Constant
Bit rate : 384 Kbps
Channel(s) : 2 channels
Channel positions : Front: L R
Sampling rate : 48.0 KHz
Compression mode : Lossy
Stream size : 252 MiB (7%)
Language : Russian
Audio #2
ID : 4353 (0x1101)
Menu ID : 1 (0x1)
Format : AC-3
Format/Info : Audio Coding 3
Mode extension : CM (complete main)
Format settings, Endianness : Big
Codec ID : 129
Duration : 1h 31mn
Bit rate mode : Constant
Bit rate : 448 Kbps
Channel(s) : 6 channels
Channel positions : Front: L C R, Side: L R, LFE
Sampling rate : 48.0 KHz
Compression mode : Lossy
Stream size : 294 MiB (8%)
Language : Russian
Audio #3
ID : 4354 (0x1102)
Menu ID : 1 (0x1)
Format : AC-3
Format/Info : Audio Coding 3
Mode extension : CM (complete main)
Format settings, Endianness : Big
Codec ID : 129
Duration : 1h 31mn
Bit rate mode : Constant
Bit rate : 448 Kbps
Channel(s) : 6 channels
Channel positions : Front: L C R, Side: L R, LFE
Sampling rate : 48.0 KHz
Compression mode : Lossy
Stream size : 294 MiB (8%)
Language : Russian

To download the content you need:
1. Download and install torrent client [for Windows] or for mobile system
2. Click on [Download]
Attention.
If the test YOU are NOT a ROBOT - does not work, then You are using an outdated browser.
Install the current browser and click on [Download]

Do not work with Yandex browser. Uploading files to them is erroneous.
Security: torrent client is allowed by Kaspersky.

[en.asmlocator.ru].t4340.torrent 
Torrent: Registered [ 2015-12-01 13:55 ] · 73DC403356E98B7E6A136846061120D49F407668

Download .torrent

Download

18 KB

Status: checked
Completed: 0 times
Size: 3.55 GB
terms.php
[Profile] [PM]
Display posts:    
Reply to topic

Current time is: 29-Mar 18:23

All times are UTC ± 0



You cannot post new topics in this forum
You cannot reply to topics in this forum
You cannot edit your posts in this forum
You cannot delete your posts in this forum
You cannot vote in polls in this forum
You cannot attach files in this forum
You can download files in this forum
Верим фактам, а не вранью Путина! Факт, что Правительство ведёт Россию к истреблению.
Так как численность населения падает, даже не смотря на приток эмигрантов!
Русская нация вымирает и вырождается, смешиваясь с эмигрантами!
Факт, что военных и граждан предприятий заставляют голосовать за партию Единая Россия и Путина
ПОД СТРАХОМ УВОЛЬНЕНИЯ!
Нам не нужно Правительство, блокирующее личную жизнь, интернет, нарушающее сохранность данных.
Все эти действия финансируются за счёт народа!