Кошмар на лондонском мосту / Terror at London Bridge / Bridge Across Time (Э.У. Суокхэймер / E.W. Swackhamer) [1985, США,Триллер, ужасы, DVDRip] DVO

Reply to topic
DL-List and Torrent activity
Size:  1.37 GB   |    Registered:  4 years 4 months   |    Completed:  0 times

Seeder not seen: Never

 
   
 
 
Author Message

star21 ®

Gender: Female

Longevity: 4 years 5 months

Posts: 551945

Location: Екатеринбург

Post 01-Dec-2015 13:55

[Quote]

Кошмар на лондонском мосту / Terror at London Bridge / Bridge Across Time
Страна: США
Жанр: Триллер ,ужасы
Год выпуска: 1985
Продолжительность: 1:36:25
Перевод: Профессиональный (двухголосый закадровый)
Cубтитры: нет
Режиссер: Э.У. Суокхэймер / E.W. Swackhamer
В ролях: Дэвид Хэсселхофф, Стефани Крамер, Рэндольф Мэнтут, Эдриенн Барбо, Клу Гулагер, Линдсэй Блум, Кен Своффорд
Описание: Лондон, 1988 год, Лондонский мост. Джек-потрошитель умирает, утонув в Темзе. Аризона, 1985 год. Лондонский мост на озере Хавасу. Последний камень, использованный для восстановления моста, все горожане счастливы. Но с того момента в городе стали происходить странные убийства. Полицейский Дон Грегори подозревает, что вернулся дух Джека-потрошителя. Но ему никто не верит...
Доп. информация: Релиз Кинозал ТВ
Сэмпл: https://www.sendspace.com/file/4y23kq
Качество видео: DVDRip
Формат видео: AVI
Видео: Xvid MPEG-4 , 640x480 (1.33:1) , 23.976 fps , 1 899 Kbps
Аудио: Mp3 , 48 kHz , 128 kbps avg , 2/0 (L,R) ch

MediaInfo

Complete name Кошмар на лондонском мосту 1985.avi
Format : AVI
Format/Info : Audio Video Interleave
File size : 1.37 GiB
Duration : 1h 36mn
Overall bit rate : 2 036 Kbps
Writing library : VirtualDub build 35491/release
Video
ID : 0
Format : MPEG-4 Visual
Format profile : Advanced Simple@L5
Format settings, BVOP : 2
Format settings, QPel : No
Format settings, GMC : No warppoints
Format settings, Matrix : Default (MPEG)
Codec ID : XVID
Codec ID/Hint : XviD
Duration : 1h 36mn
Bit rate : 1 899 Kbps
Width : 640 pixels
Height : 480 pixels
Display aspect ratio : 4:3
Frame rate : 23.976 fps
Color space : YUV
Chroma subsampling : 4:2:0
Bit depth : 8 bits
Scan type : Progressive
Compression mode : Lossy
Bits/(Pixel*Frame) : 0.258
Stream size : 1.28 GiB (93%)
Writing library : XviD 64
Audio
ID : 1
Format : MPEG Audio
Format version : Version 1
Format profile : Layer 3
Mode : Joint stereo
Codec ID : 55
Codec ID/Hint : MP3
Duration : 1h 36mn
Bit rate mode : Constant
Bit rate : 128 Kbps
Channel(s) : 2 channels
Sampling rate : 48.0 KHz
Compression mode : Lossy
Stream size : 88.1 MiB (6%)
Alignment : Split accross interleaves
Interleave, duration : 42 ms (1.00 video frame)
Interleave, preload duratio : 500 ms

Скриншоты

To download the content you need:
1. Download and install torrent client [for Windows] or for mobile system
2. Click on [Download]
Attention.
If the test YOU are NOT a ROBOT - does not work, then You are using an outdated browser.
Install the current browser and click on [Download]

Do not work with Yandex browser. Uploading files to them is erroneous.
Security: torrent client is allowed by Kaspersky.

[en.asmlocator.ru].t4328.torrent 
Torrent: Registered [ 2015-12-01 13:55 ] · 58C4B250DE64BB4A1D37A8CE8ED41AB6A8A432D3

Download .torrent

Download

14 KB

Status: checked
Completed: 0 times
Size: 1.37 GB
terms.php
[Profile] [PM]
Display posts:    
Reply to topic

Current time is: 10-Apr 10:05

All times are UTC ± 0



You cannot post new topics in this forum
You cannot reply to topics in this forum
You cannot edit your posts in this forum
You cannot delete your posts in this forum
You cannot vote in polls in this forum
You cannot attach files in this forum
You can download files in this forum
Верим фактам, а не вранью Путина! Факт, что Правительство ведёт Россию к истреблению.
Так как численность населения падает, даже не смотря на приток эмигрантов!
Русская нация вымирает и вырождается, смешиваясь с эмигрантами!
Факт, что военных и граждан предприятий заставляют голосовать за партию Единая Россия и Путина
ПОД СТРАХОМ УВОЛЬНЕНИЯ!
Нам не нужно Правительство, блокирующее личную жизнь, интернет, нарушающее сохранность данных.
Все эти действия финансируются за счёт народа!