День саранчи / The Day Of The Locust (Джон Шлезингер / John Schlesinger) [1975, США, триллер, драма, DVDRip] 2x MVO + Original Eng

Reply to topic
DL-List and Torrent activity
Size:  2.92 GB   |    Registered:  4 years 4 months   |    Completed:  0 times

Seeder not seen: Never

 
   
 
 
Author Message

star21 ®

Gender: Female

Longevity: 4 years 5 months

Posts: 551945

Location: Екатеринбург

Post 01-Dec-2015 13:55

[Quote]

День саранчи / The Day Of The Locust
Страна: США
Жанр: триллер, драма
Год выпуска: 1975
Продолжительность: 02:18:14
Перевод 1: Профессиональный (многоголосый закадровый) Paramount channel
Перевод 2: Профессиональный (многоголосый закадровый)
Cубтитры: нет
Оригинальная аудиодорожка: английский
Режиссер: Джон Шлезингер / John Schlesinger
В ролях: Дональд Сазерленд /Donald Sutherland/, Карен Блэк /Karen Black/, Бёрджесс Мередит /Burgess Meredith/, Уильям Этертон /William Atherton/, Джеральдин Пейдж /Geraldine Page/, Ричард А. Дайсарт /Richard A. Dysart/, Бо Хопкинс /Bo Hopkins/, Пепе Серна /Pepe Serna/, Лилия Гольдони /Lelia Goldoni/, Билли Барти /Billy Barty/, Джеки Эрл Хейли /Jackie Earle Haley/, Глория ЛеРой /Gloria LeRoy/, Джейн Хоффман /Jane Hoffman/, Норман Ливитт /Norman Leavitt/, Мэдж Кеннеди /Madge Kennedy/, Ина Гулд /Ina Gould/, Флоренс Лэйк /Florence Lake/, Маргарет Уилли /Margaret Willey/, John War Eagle, Натали Шафер /Natalie Schafer/
Описание: 30-е годы XX века. Голливуд – недостижимая вершина для восторженных любителей кинематографа. Но год от года мечтатели продолжают штурмовать ее в надежде доказать свой талант и обрести славу, деньги, любовь поклонников. Хэрри Гриннер, выпускник Йельского университета, тоже пытается войти в мир кинобизнеса. Но попав за кулисы киноиндустрии, он видит, что за красивой картинкой "фабрики грез" скрывается уродливая реальность
II Сэмпл II [imdb]http://www.imdb.com/title/tt0072848[/imdb] II
Доп. информация:
За исходник спасибо Dzhuga
Первая дорога записана с т/к Paramount channel
Качество видео: DVDRip
Формат видео: AVI
Видео: Xvid / 704x400 / 16:9 / 25.0fps / Bit rate 2169Kbps / b/p 0.308
Аудио 1: AC3 / 48.0KHz / 2ch. / 192kbps / rus / mvo / Paramount channel
Аудио 2: AC3 / 48.0KHz / 2ch. / 192kbps / rus / mvo
Аудио 3: AC3 / 48.0KHz / 6ch. / 448kbps / eng

MediaInfo

Общее
Полное имя : E:\torrent\The.Day.of.the.Locust.1975.DVDRip_by_vedigo.avi
Формат : AVI
Формат/Информация : Audio Video Interleave
Профиль формата : OpenDML
Размер файла : 2,92 Гбайт
Продолжительность : 2 ч. 18 м.
Общий поток : 3023 Кбит/сек
Программа кодирования : VirtualDubMod 1.5.10.3 (build 2550/release)
Библиотека кодирования : VirtualDubMod build 2550/release
Видео
Идентификатор : 0
Формат : MPEG-4 Visual
Профиль формата : Advanced Simple@L5
Параметр BVOP формата : 2
Параметр QPel формата : Нет
Параметр GMC формата : Без точки перехода
Параметр матрицы формата : Default (MPEG)
Идентификатор кодека : XVID
Идентификатор кодека/Подсказка : XviD
Продолжительность : 2 ч. 18 м.
Битрейт : 2169 Кбит/сек
Ширина : 704 пикселя
Высота : 400 пикселей
Соотношение сторон : 16:9
Частота кадров : 25,000 кадров/сек
Цветовое пространство : YUV
Субдискретизация насыщенности : 4:2:0
Битовая глубина : 8 бит
Тип развёртки : Прогрессивная
Метод сжатия : С потерями
Бит/(Пиксели*Кадры) : 0.308
Размер потока : 2,09 Гбайт (72%)
Библиотека кодирования : XviD 1.2.1 (UTC 2008-12-04)
Аудио #1
Идентификатор : 1
Формат : AC-3
Формат/Информация : Audio Coding 3
Расширение режима : CM (complete main)
Параметр Endianness формата : Big
Идентификатор кодека : 2000
Продолжительность : 2 ч. 18 м.
Вид битрейта : Постоянный
Битрейт : 192 Кбит/сек
Каналы : 2 канала
Расположение каналов : Front: L R
Частота : 48,0 КГц
Метод сжатия : С потерями
Размер потока : 190 Мбайт (6%)
Выравнивание : Разделение по промежуткам
Продолжительность промежутка : 40 мс. (1,00 видеокадр)
Время предзагрузки промежутка : 500 мс.
Аудио #2
Идентификатор : 2
Формат : AC-3
Формат/Информация : Audio Coding 3
Расширение режима : CM (complete main)
Параметр Endianness формата : Big
Идентификатор кодека : 2000
Продолжительность : 2 ч. 18 м.
Вид битрейта : Постоянный
Битрейт : 192 Кбит/сек
Каналы : 2 канала
Расположение каналов : Front: L R
Частота : 48,0 КГц
Метод сжатия : С потерями
Размер потока : 190 Мбайт (6%)
Выравнивание : Разделение по промежуткам
Продолжительность промежутка : 40 мс. (1,00 видеокадр)
Время предзагрузки промежутка : 500 мс.
Аудио #3
Идентификатор : 3
Формат : AC-3
Формат/Информация : Audio Coding 3
Расширение режима : CM (complete main)
Параметр Endianness формата : Big
Идентификатор кодека : 2000
Продолжительность : 2 ч. 18 м.
Вид битрейта : Постоянный
Битрейт : 448 Кбит/сек
Каналы : 6 каналов
Расположение каналов : Front: L C R, Side: L R, LFE
Частота : 48,0 КГц
Метод сжатия : С потерями
Размер потока : 443 Мбайт (15%)
Выравнивание : Разделение по промежуткам
Продолжительность промежутка : 40 мс. (1,00 видеокадр)
Время предзагрузки промежутка : 500 мс.

Скриншот c названием фильма

Скриншоты

Скины:

To download the content you need:
1. Download and install torrent client [for Windows] or for mobile system
2. Click on [Download]
Attention.
If the test YOU are NOT a ROBOT - does not work, then You are using an outdated browser.
Install the current browser and click on [Download]

Do not work with Yandex browser. Uploading files to them is erroneous.
Security: torrent client is allowed by Kaspersky.

[en.asmlocator.ru].t4323.torrent 
Torrent: Registered [ 2015-12-01 13:55 ] · 5EE4C8536E40B8CC3A1C1AB58E73CFFB956594AF

Download .torrent

Download

15 KB

Status: checked
Completed: 0 times
Size: 2.92 GB
terms.php
[Profile] [PM]
Display posts:    
Reply to topic

Current time is: 10-Apr 08:13

All times are UTC ± 0



You cannot post new topics in this forum
You cannot reply to topics in this forum
You cannot edit your posts in this forum
You cannot delete your posts in this forum
You cannot vote in polls in this forum
You cannot attach files in this forum
You can download files in this forum
Верим фактам, а не вранью Путина! Факт, что Правительство ведёт Россию к истреблению.
Так как численность населения падает, даже не смотря на приток эмигрантов!
Русская нация вымирает и вырождается, смешиваясь с эмигрантами!
Факт, что военных и граждан предприятий заставляют голосовать за партию Единая Россия и Путина
ПОД СТРАХОМ УВОЛЬНЕНИЯ!
Нам не нужно Правительство, блокирующее личную жизнь, интернет, нарушающее сохранность данных.
Все эти действия финансируются за счёт народа!