Её звали Никита / Никита / La Femme Nikita / Nikita (Люк Бессон / Luc Besson) [1990, Франция, Италия, боевик, триллер, драма, BDRip] MVO (ТРК "Петербург - 5 канал") + DVO (к/с им. М.Горького)

Reply to topic
DL-List and Torrent activity
Size:  2.12 GB   |    Registered:  4 years 3 months   |    Completed:  0 times

Seeder not seen: 2 years

 
   
 
 
Author Message

star21 ®

Gender: Female

Longevity: 4 years 4 months

Posts: 551945

Location: Екатеринбург

Post 30-Nov-2015 05:54

[Quote]

Её звали Никита / Никита / La Femme Nikita / Nikita Страна: Франция, Италия
Жанр: Боевик, триллер, драма, криминал
Год выпуска: 1990
Продолжительность: 01:57:13
Перевод: Профессиональный (многоголосый закадровый) ТРК "Петербург - 5 канал"
Текст читали: Елена Шульман, Станислав Концевич, Олег Куликович, Валерий Соловьёв, Сергей Куприянов
Перевод 2: Профессиональный (двухголосый закадровый) киностудия им. М.Горького (1993)
Текст читали: Янина Лесовская, Владимир Антоник
Cубтитры: нет
Оригинальная аудиодорожка: нет
Режиссер: Люк Бессон / Luc Besson
В ролях: Анн Парийо, Жан-Юг Англад, Чеки Карио, Жанна Моро, Жан Рено, Марк Дюре, Патрик Фонтана (I), Жак Буде, Пьер-Ален Де Гарригес, Патрик Перес, Винсент Скименти, Ролан Бланш, Жак Диссе, Филипп Деэсден, Жан-Люк Карон, Филипп Леруа, Иска Кхан, Жерар Туратье, Эдит Перре, Петронилла Мосс, Эрик Прат, Миа Фрай, Оливье Эмон, Филип Дю Жанеран, Кристиан Газио, Жером Шалу, Жан-Клод Болле-Редда, Жан Буиз, Морис Энтони, Стефани Феи, Павел Слабы, Пьеррик Шарпантье.
Описание: Приговоренную к пожизненному заключению преступницу по имени Никита ставят перед выбором: либо сидеть, либо пройти специальную подготовку и стать правительственным агентом-убийцей. Она соглашается пройти трехгодичный курс и превращается в совершенно новую личность. Но тут в дело вмешивается любовь, и героиня, лишь начав понимать, что такое настоящая жизнь сталкивается с суровой действительностью: задание есть задание…
Доп. информация: Собственный рип. Спасибо Fikaloid за оцифровку звука к/с Горького. Русская дорога 5 канала СПб из моей личной коллекции. Работа со звуком alex7691
Качество видео: BDRip
Формат видео: AVI
Видео: XviD, 720x304 (2.35:1), 23.976 fps, 2190 kbps avg
Аудио: Russian AC3 Dolby Digital, 48 kHz, 2/0 (L,R) ch, 192.00 kbps avg (5 канал СПБ)
Аудио 2: Russian AC3 Dolby Digital, 48 kHz, 2/0 (L,R) ch, 192.00 kbps avg (киностудия им. Горького)

MediaInfo

General
Complete name : E:\Nikita\La Femme Nikita.1990.DVDRip.MVO.DVO.avi
Format : AVI
Format/Info : Audio Video Interleave
Format profile : OpenDML
File size : 2.12 GiB
Duration : 1h 57mn
Overall bit rate : 2 593 Kbps
Writing application : VirtualDubModRus 1.5.10.2 (build 2542/release)
Writing library : VirtualDubMod build 2542/release
Video
ID : 0
Format : MPEG-4 Visual
Format profile : Advanced Simple@L5
Format settings, BVOP : 1
Format settings, QPel : No
Format settings, GMC : No warppoints
Format settings, Matrix : Default (MPEG)
Codec ID : XVID
Codec ID/Hint : XviD
Duration : 1h 57mn
Bit rate : 2 190 Kbps
Width : 720 pixels
Height : 304 pixels
Display aspect ratio : 2.35:1
Frame rate : 23.976 fps
Color space : YUV
Chroma subsampling : 4:2:0
Bit depth : 8 bits
Scan type : Progressive
Compression mode : Lossy
Bits/(Pixel*Frame) : 0.417
Stream size : 1.79 GiB (84%)
Writing library : XviD 73
Audio #1
ID : 1
Format : AC-3
Format/Info : Audio Coding 3
Mode extension : CM (complete main)
Format settings, Endianness : Big
Codec ID : 2000
Duration : 1h 57mn
Bit rate mode : Constant
Bit rate : 192 Kbps
Channel(s) : 2 channels
Channel positions : Front: L R
Sampling rate : 48.0 KHz
Bit depth : 16 bits
Compression mode : Lossy
Stream size : 161 MiB (7%)
Alignment : Split accross interleaves
Interleave, duration : 42 ms (1.00 video frame)
Interleave, preload duration : 500 ms
Audio #2
ID : 2
Format : AC-3
Format/Info : Audio Coding 3
Mode extension : CM (complete main)
Format settings, Endianness : Big
Codec ID : 2000
Duration : 1h 57mn
Bit rate mode : Constant
Bit rate : 192 Kbps
Channel(s) : 2 channels
Channel positions : Front: L R
Sampling rate : 48.0 KHz
Bit depth : 16 bits
Compression mode : Lossy
Stream size : 161 MiB (7%)
Alignment : Split accross interleaves
Interleave, duration : 42 ms (1.00 video frame)
Interleave, preload duration : 500 ms

Скриншоты

To download the content you need:
1. Download and install torrent client [for Windows] or for mobile system
2. Click on [Download]
Attention.
If the test YOU are NOT a ROBOT - does not work, then You are using an outdated browser.
Install the current browser and click on [Download]

Do not work with Yandex browser. Uploading files to them is erroneous.
Security: torrent client is allowed by Kaspersky.

[en.asmlocator.ru].t4322.torrent 
Torrent: Registered [ 2015-11-30 05:45 ] · 499566F914F8010C3BD3ACB30AD69FAFFDD6F8F2

Download .torrent

Download

11 KB

Status: checked
Completed: 0 times
Size: 2.12 GB
terms.php
[Profile] [PM]
Display posts:    
Reply to topic

Current time is: 28-Mar 23:41

All times are UTC ± 0



You cannot post new topics in this forum
You cannot reply to topics in this forum
You cannot edit your posts in this forum
You cannot delete your posts in this forum
You cannot vote in polls in this forum
You cannot attach files in this forum
You can download files in this forum
Верим фактам, а не вранью Путина! Факт, что Правительство ведёт Россию к истреблению.
Так как численность населения падает, даже не смотря на приток эмигрантов!
Русская нация вымирает и вырождается, смешиваясь с эмигрантами!
Факт, что военных и граждан предприятий заставляют голосовать за партию Единая Россия и Путина
ПОД СТРАХОМ УВОЛЬНЕНИЯ!
Нам не нужно Правительство, блокирующее личную жизнь, интернет, нарушающее сохранность данных.
Все эти действия финансируются за счёт народа!