Я в замке король / Я король замка / Я хозяин замка / Je suis le seigneur du château (chateau) / I\'m the King of the Castle (Режис Варнье / Régis Wargnier) [1989, Франция, драма, триллер, DVDRip] VO + Sub Eng + Original Fre

Reply to topic
DL-List and Torrent activity
Size:  1.45 GB   |    Registered:  4 years 3 months   |    Completed:  1 time

Seeder not seen: 5 months 9 days

 
   
 
 
Author Message

star21 ®

Gender: Female

Longevity: 4 years 4 months

Posts: 551945

Location: Екатеринбург

Post 30-Nov-2015 05:54

[Quote]

Я в замке король / Я король замка / Я хозяин замка / Je suis le seigneur du château (chateau) / I'm the King of the Castle
Страна: Франция
Жанр: драма, триллер
Год выпуска: 1989
Продолжительность: 01:24:53
Перевод: Одноголосый закадровый
Cубтитры: английские
Оригинальная аудиодорожка: французский
Режиссер: Режис Варнье / Régis Wargnier
В ролях: Жан Рошфор, Доминик Блан, Режис Арпен, Дэвид Бехар, Паскаль Ле Гофф, Фредерик Ренно
О фильме: Том – 12-летний сын миллионера, который живет в большом особняке, окруженном лесом во Франции. Когда его мать умирает, его отец (Жан Рошфор) нанимает вдовствующую домработницу, которая смотрела бы за порядком в его отсутствие. Она приходит в дом вместе со своим единственным сыном Шарлем, надеясь, что тот составит компанию своему одинокому сверстнику Тому. Богатый мальчик и бедный становятся врагами с первой же встречи...
Фильм произвел ужасающее впечатления на некоторых зрителей и критиков, которые посчитали, что больше никогда не будут его смотреть больше и тем более держать в коллекции, но отметили его как значительное произведение. Снят по книге Сьюзен Хилл "I'm the King of the Castle" / "Я в замке король".
Доп. информация: [imdb]http://www.imdb.com/title/tt0097614[/imdb]
Исходник:
Сэмпл: http://sendfile.su/1148241
Качество видео: DVDRip
Формат видео: AVI
Видео: 688x384 (1.79:1), 25 fps, XviD build 73 ~2149 kbps avg, 0.32 bit/pixel
Аудио #1: 48 kHz, AC3 Dolby Digital, 2/0 (L,R) ch, ~192 kbps avg - русский
Аудио #2: 48 kHz, AC3 Dolby Digital, 1/0 (C) ch, ~96 kbps avg - оригинал
Формат субтитров: softsub (SRT)

MediaInfo

Общее
Полное имя : H:\Фильмы\Je suis le seigneur du chateau.1989.DVDRip\Je.suis.le.seigneur.du.chateau.1989.DVDRip.avi
Формат : AVI
Формат/Информация : Audio Video Interleave
Размер файла : 1,45 Гбайт
Продолжительность : 1 ч. 24 м.
Общий поток : 2451 Кбит/сек
Программа кодирования : VirtualDubMod 1.5.10.2 (build 2540/release)
Библиотека кодирования : VirtualDubMod build 2540/release
Авторское право : rip by Judas_X
Видео
Идентификатор : 0
Формат : MPEG-4 Visual
Профиль формата : Advanced Simple@L5
Параметр BVOP формата : 1
Параметр QPel формата : Нет
Параметр GMC формата : Без точки перехода
Параметр матрицы формата : Выборочная
Идентификатор кодека : XVID
Идентификатор кодека/Подсказка : XviD
Продолжительность : 1 ч. 24 м.
Битрейт : 2149 Кбит/сек
Ширина : 688 пикселей
Высота : 384 пикселя
Соотношение сторон : 16:9
Частота кадров : 25,000 кадров/сек
Цветовое пространство : YUV
Субдискретизация насыщенности : 4:2:0
Битовая глубина : 8 бит
Тип развёртки : Прогрессивная
Метод сжатия : С потерями
Бит/(Пиксели*Кадры) : 0.325
Размер потока : 1,27 Гбайт (88%)
Библиотека кодирования : XviD 73
Аудио #1
Идентификатор : 1
Формат : AC-3
Формат/Информация : Audio Coding 3
Расширение режима : CM (complete main)
Параметр Endianness формата : Big
Идентификатор кодека : 2000
Продолжительность : 1 ч. 24 м.
Вид битрейта : Постоянный
Битрейт : 192 Кбит/сек
Каналы : 2 канала
Расположение каналов : Front: L R
Частота : 48,0 КГц
Битовая глубина : 16 бит
Метод сжатия : С потерями
Размер потока : 117 Мбайт (8%)
Выравнивание : Разделение по промежуткам
Продолжительность промежутка : 40 мс. (1,00 видеокадр)
Время предзагрузки промежутка : 500 мс.
Аудио #2
Идентификатор : 2
Формат : AC-3
Формат/Информация : Audio Coding 3
Расширение режима : CM (complete main)
Параметр Endianness формата : Big
Идентификатор кодека : 2000
Продолжительность : 1 ч. 24 м.
Вид битрейта : Постоянный
Битрейт : 96,0 Кбит/сек
Каналы : 1 канал
Расположение каналов : Front: C
Частота : 48,0 КГц
Битовая глубина : 16 бит
Метод сжатия : С потерями
Размер потока : 58,3 Мбайт (4%)
Выравнивание : Разделение по промежуткам
Продолжительность промежутка : 40 мс. (1,00 видеокадр)
Время предзагрузки промежутка : 500 мс.

Скриншоты



To download the content you need:
1. Download and install torrent client [for Windows] or for mobile system
2. Click on [Download]
Attention.
If the test YOU are NOT a ROBOT - does not work, then You are using an outdated browser.
Install the current browser and click on [Download]

Do not work with Yandex browser. Uploading files to them is erroneous.
Security: torrent client is allowed by Kaspersky.

[en.asmlocator.ru].t4321.torrent 
Torrent: Registered [ 2015-11-30 05:45 ] · B70BD839EEACF225657FDC75379EA9FBC8D8C8A3

Download .torrent

Download

15 KB

Status: checked
Completed: 1 times
Size: 1.45 GB
terms.php
[Profile] [PM]
Display posts:    
Reply to topic

Current time is: 29-Mar 00:07

All times are UTC ± 0



You cannot post new topics in this forum
You cannot reply to topics in this forum
You cannot edit your posts in this forum
You cannot delete your posts in this forum
You cannot vote in polls in this forum
You cannot attach files in this forum
You can download files in this forum
Верим фактам, а не вранью Путина! Факт, что Правительство ведёт Россию к истреблению.
Так как численность населения падает, даже не смотря на приток эмигрантов!
Русская нация вымирает и вырождается, смешиваясь с эмигрантами!
Факт, что военных и граждан предприятий заставляют голосовать за партию Единая Россия и Путина
ПОД СТРАХОМ УВОЛЬНЕНИЯ!
Нам не нужно Правительство, блокирующее личную жизнь, интернет, нарушающее сохранность данных.
Все эти действия финансируются за счёт народа!