Попавший в западню / Rigged (Клаудио М. Катри / Claudio M. Cutry, Джеффресон Ричард / Jefferson Richard) [1986, США, Триллер, детектив, VHSRip] AVO (А.Кашкин-Первомайский)

Reply to topic
DL-List and Torrent activity
Size:  1 GB   |    Registered:  4 years 3 months   |    Completed:  1 time

Seeder not seen: 5 months 9 days

 
   
 
 
Author Message

star21 ®

Gender: Female

Longevity: 4 years 4 months

Posts: 551945

Location: Екатеринбург

Post 30-Nov-2015 05:54

[Quote]

Попавший в западню / Rigged
Страна: США
Жанр: Триллер, детектив
Год выпуска: 1986
Продолжительность: 01:30:58
Перевод: Авторский (одноголосый закадровый) (А.Кашкин-Первомайский)
Cубтитры: нет
Оригинальная аудиодорожка: нет
Режиссер: Клаудио М. Катри / Claudio M. Cutry, Джеффресон Ричард / Jefferson Richard
В ролях: Кен Роберсон
Джордж Кеннеди
Памела Джин Брайант
Дэне Антон
Джордж «Бак» Флауэр
Джон Керли
Джон Ф. Гофф
Рамон Гонзалез Куэвас
Крис Кинкейд
Рэндолл Оливер
Описание: Владелец крупной компаниии Бенджамин знакомит преуспевающего бизнесмена Мэйсона со своей молодой и безумно красивой женой Моникой. Между Моникой и Мэйсоном вспыхивает страстный любовный роман.
Мэйсон и подумать не мог, что Бенджамин связан с контрабандой наркотиков, а на него самого вскоре ляжет подозрение в убийстве офицера полиции.
Фильм снят по роману Джеймса Хэдли Чейза "Дело о наезде".
Доп. информация: Фильм по роману Джеймса Хэдли Чейза "Дело о наезде". Фильм раритетный, из личной коллекции. VHS-рип.
Сэмпл: https://yadi.sk/d/G7LwqWdgibXBC
Качество видео: VHSRip
Формат видео: MKV
Видео: MPEG-2, 1353 Кбит/с, 352x576@768x576
Аудио:MP2, 2 ch, 192 Кбит/с

MediaInfo

Общее
Уникальный идентификатор : 5613673018579070369983891403463066637 (0x4392772DD64A3AB85F569E39ADE040D)
Полное имя : C:\Users\1\Videos\Popavshiy v zapadny.mkv
Формат : Matroska
Версия формата : Version 2
Размер файла : 1,00 Гбайт
Продолжительность : 1 ч. 30 м.
Общий поток : 1576 Кбит/сек
Программа кодирования : Lavf52.93.0
Библиотека кодирования : Lavf52.93.0
Видео
Идентификатор : 1
Формат : MPEG Video
Версия формата : Version 2
Профиль формата : Main@Main
Параметр BVOP формата : Да
Параметр матрицы формата : Выборочная
Параметр GOP формата : M=3, N=12
Структура изображения : Frame
Идентификатор кодека : V_MPEG2
Идентификатор кодека/Информация : MPEG 1 or 2 Video
Продолжительность : 1 ч. 30 м.
Битрейт : 1353 Кбит/сек
Максимальный битрейт : 1380 Кбит/сек
Ширина : 352 пикселя
Высота : 576 пикселей
Соотношение сторон : 4:3
Соотношение сторон в оригинале : 4:3
Режим частоты кадров : Постоянный
Частота кадров : 25,000 кадров/сек
Стандарт вещания : PAL
Цветовое пространство : YUV
Субдискретизация насыщенности : 4:2:0
Битовая глубина : 8 бит
Тип развёртки : Чересстрочная
Порядок развёртки : Верхнее поле первое
Метод сжатия : С потерями
Бит/(Пиксели*Кадры) : 0.267
Временной код первого кадра : 00:00:00:12
Оригинал временного кода : Group of pictures header
GOP, открыто/закрыто : Открыто
Размер потока : 880 Мбайт (86%)
Default : Да
Forced : Нет
Аудио
Идентификатор : 2
Формат : MPEG Audio
Версия формата : Version 1
Профиль формата : Layer 2
Идентификатор кодека : A_MPEG/L2
Идентификатор кодека/Подсказка : MP2
Продолжительность : 1 ч. 30 м.
Вид битрейта : Постоянный
Битрейт : 192 Кбит/сек
Каналы : 2 канала
Частота : 48,0 КГц
Метод сжатия : С потерями
Задержка видео : -456 мс.
Размер потока : 125 Мбайт (12%)
Default : Да
Forced : Нет

Скриншот c названием фильма

Скриншоты







To download the content you need:
1. Download and install torrent client [for Windows] or for mobile system
2. Click on [Download]
Attention.
If the test YOU are NOT a ROBOT - does not work, then You are using an outdated browser.
Install the current browser and click on [Download]

Do not work with Yandex browser. Uploading files to them is erroneous.
Security: torrent client is allowed by Kaspersky.

[en.asmlocator.ru].t4320.torrent 
Torrent: Registered [ 2015-11-30 05:45 ] · 007B1A7D134CD861A80D9145940E240455CF7A99

Download .torrent

Download

10 KB

Status: checked
Completed: 1 times
Size: 1 GB
terms.php
[Profile] [PM]
Display posts:    
Reply to topic

Current time is: 29-Mar 00:38

All times are UTC ± 0



You cannot post new topics in this forum
You cannot reply to topics in this forum
You cannot edit your posts in this forum
You cannot delete your posts in this forum
You cannot vote in polls in this forum
You cannot attach files in this forum
You can download files in this forum
Верим фактам, а не вранью Путина! Факт, что Правительство ведёт Россию к истреблению.
Так как численность населения падает, даже не смотря на приток эмигрантов!
Русская нация вымирает и вырождается, смешиваясь с эмигрантами!
Факт, что военных и граждан предприятий заставляют голосовать за партию Единая Россия и Путина
ПОД СТРАХОМ УВОЛЬНЕНИЯ!
Нам не нужно Правительство, блокирующее личную жизнь, интернет, нарушающее сохранность данных.
Все эти действия финансируются за счёт народа!