Обнаженная месть / Naked Vengeance (Сирио Сантьяго / Cirio H. Santiago) [1985, США, Филиппины, Триллер, VHSRip] DVO

Reply to topic
DL-List and Torrent activity
Size:  1.38 GB   |    Registered:  4 years 4 months   |    Completed:  0 times

Seeder not seen: 1 year 1 month

 
   
 
 
Author Message

star21 ®

Gender: Female

Longevity: 4 years 4 months

Posts: 551945

Location: Екатеринбург

Post 30-Nov-2015 05:54

[Quote]

Обнаженная месть / Naked Vengeance
Страна: США, Филиппины
Жанр: Триллер
Год выпуска: 1985
Продолжительность: 01:27:12
Перевод: Профессиональный (двухголосый закадровый)
Cубтитры: нет
Режиссер: Сирио Сантьяго / Cirio H. Santiago
В ролях: Дебора Трэнелли , Каз Гарас , Кармен Ардженциано , Билл МакЛафлин , Эд Крик , Джордж Е. Малберг , Ник Николсон , Дон Гордон Белл , Дэвид Лайт , Терренс О’Хара
Описание: Жутковатая история о женщине, хладнокровно и жестоко мстящей негодяям, изнасиловавшим ее и убившим всю ее семью.
Доп. информация: Дорога синхронизирована из раздачи Igor2138
Сэмпл: https://www.sendspace.com/file/bihkmb
Качество видео: VHSRip
Формат видео: AVI
Видео: DivX MPEG-4 , 640x480 (1.33:1) , 23.976 fps , 2 061 Kbps
Аудио: AC3 , 48 kHz , 192.00 kbps avg , 2/0 (L,R) ch

MediaInfo

Complete name Обнаженная месть 1985.avi
Format : AVI
Format/Info : Audio Video Interleave
File size : 1.38 GiB
Duration : 1h 27mn
Overall bit rate : 2 262 Kbps
Writing library : VirtualDub build 35491/release
Video
ID : 0
Format : MPEG-4 Visual
Format settings, BVOP : No
Format settings, QPel : No
Format settings, GMC : No warppoints
Format settings, Matrix : Default (H.263)
Codec ID : DX50
Codec ID/Hint : DivX 5
Duration : 1h 27mn
Bit rate : 2 061 Kbps
Width : 640 pixels
Height : 480 pixels
Display aspect ratio : 4:3
Frame rate : 23.976 fps
Color space : YUV
Chroma subsampling : 4:2:0
Bit depth : 8 bits
Scan type : Progressive
Compression mode : Lossy
Bits/(Pixel*Frame) : 0.280
Stream size : 1.26 GiB (91%)
Writing library : DivX 5.0.5 (UTC 2003-04-24)
Audio
ID : 1
Format : AC-3
Format/Info : Audio Coding 3
Mode extension : CM (complete main)
Format settings, Endianness : Big
Codec ID : 2000
Duration : 1h 27mn
Bit rate mode : Constant
Bit rate : 192 Kbps
Channel(s) : 2 channels
Channel positions : Front: L R
Sampling rate : 48.0 KHz
Compression mode : Lossy
Stream size : 120 MiB (8%)
Alignment : Aligned on interleaves
Interleave, duration : 42 ms (1.00 video frame)
Interleave, preload duratio : 512 ms

Скриншоты

To download the content you need:
1. Download and install torrent client [for Windows] or for mobile system
2. Click on [Download]
Attention.
If the test YOU are NOT a ROBOT - does not work, then You are using an outdated browser.
Install the current browser and click on [Download]

Do not work with Yandex browser. Uploading files to them is erroneous.
Security: torrent client is allowed by Kaspersky.

[en.asmlocator.ru].t4319.torrent 
Torrent: Registered [ 2015-11-30 05:45 ] · 532109AF7C14B57D05A1CE23C22222CA3D38D875

Download .torrent

Download

14 KB

Status: checked
Completed: 0 times
Size: 1.38 GB
terms.php
[Profile] [PM]
Display posts:    
Reply to topic

Current time is: 03-Apr 11:23

All times are UTC ± 0



You cannot post new topics in this forum
You cannot reply to topics in this forum
You cannot edit your posts in this forum
You cannot delete your posts in this forum
You cannot vote in polls in this forum
You cannot attach files in this forum
You can download files in this forum
Верим фактам, а не вранью Путина! Факт, что Правительство ведёт Россию к истреблению.
Так как численность населения падает, даже не смотря на приток эмигрантов!
Русская нация вымирает и вырождается, смешиваясь с эмигрантами!
Факт, что военных и граждан предприятий заставляют голосовать за партию Единая Россия и Путина
ПОД СТРАХОМ УВОЛЬНЕНИЯ!
Нам не нужно Правительство, блокирующее личную жизнь, интернет, нарушающее сохранность данных.
Все эти действия финансируются за счёт народа!