Осведомитель / L\'indic (Серж Леруа / Serge Leroy) [1983, Франция, криминал, TVRip] MVO ("ОРТ") + Original Fre

Reply to topic
DL-List and Torrent activity
Size:  2.75 GB   |    Registered:  4 years 4 months   |    Completed:  0 times

Seeder not seen: Never

 
   
 
 
Author Message

star21 ®

Gender: Female

Longevity: 4 years 4 months

Posts: 551945

Location: Екатеринбург

Post 30-Nov-2015 05:54

[Quote]

Осведомитель / L'indic
Страна: Франция
Жанр: криминал
Год выпуска: 1983
Продолжительность: 01:30;27
Перевод: Профессиональный (многоголосый закадровый) - "ОРТ"
Cубтитры: нет
Оригинальная аудиодорожка: французский
Режиссер: Серж Леруа / Serge Leroy
В ролях: Даниель Отой, Тьерри Лермитт, Паскаль Рокар, Мишель Бон, Кристиан Буйетт, Мари-Катерина Конти, Даниель Дюру, Бернар-Пьер Доннадье, Жан-Луи Эйрола, Гилберт Баон ...
Описание: Молодая провинциальная девушка Сильвия разрывается между двумя знакомыми мужчинами — полицейским Бертраном и Домиником, ведущим двойную жизнь и возглавляющим одну из городских банд. Бертран предлагает ей стать его осведомительницей, и Сильвия не знает, что делать — она полюбила Доминика…
Доп. информация: Исходник найден в сети.Спасибо за рус. дорожку-- [imdb]http://www.imdb.com/title/tt0085725[/imdb]--L'indic (1983)_TVRip_Sample_.ts--Синхронизация звук. дорожки
За что ему превеликая благодарность
--Качество видео: TVRip
Формат видео: MPEG TS
Видео: PAL 16:9 (720x576) VBR Auto Letterboxed, ~ 3743.54 kbps avg
Аудио 1: Russian, AC3, 2/0 (L,R) ch, 192 kbps, Delay 0 mSec
Аудио 2: Francais, AC3, 2/0 (L,R) ch, 192 kbps, Delay 0 mSec

MediaInfo

General
ID : 1 (0x1)
Complete name : C:\Temp\L'indic (1983)_TVRip_.ts
Format : MPEG-TS
File size : 2.75 GiB
Duration : 1h 30mn
Overall bit rate mode : Variable
Overall bit rate : 4 346 Kbps
Maximum Overall bit rate : 35.5 Mbps
Video
ID : 4113 (0x1011)
Menu ID : 1 (0x1)
Format : MPEG Video
Format version : Version 2
Format profile : Main@Main
Format settings, BVOP : Yes
Format settings, Matrix : Custom
Format settings, GOP : Variable
Format settings, picture st : Frame
Codec ID : 2
Duration : 1h 30mn
Bit rate mode : Variable
Bit rate : 3 743 Kbps
Maximum bit rate : 15.0 Mbps
Width : 720 pixels
Height : 576 pixels
Display aspect ratio : 16:9
Frame rate : 25.000 fps
Standard : PAL
Color space : YUV
Chroma subsampling : 4:2:0
Bit depth : 8 bits
Scan type : Interlaced
Scan order : Top Field First
Compression mode : Lossy
Bits/(Pixel*Frame) : 0.361
Time code of first frame : 00:00:00:00
Time code source : Group of pictures header
GOP, Open/Closed : Open
Stream size : 2.36 GiB (86%)
Audio #1
ID : 4352 (0x1100)
Menu ID : 1 (0x1)
Format : AC-3
Format/Info : Audio Coding 3
Mode extension : CM (complete main)
Format settings, Endianness : Big
Codec ID : 129
Duration : 1h 30mn
Bit rate mode : Constant
Bit rate : 192 Kbps
Channel(s) : 2 channels
Channel positions : Front: L R
Sampling rate : 48.0 KHz
Compression mode : Lossy
Stream size : 124 MiB (4%)
Language : Russian
Audio #2
ID : 4353 (0x1101)
Menu ID : 1 (0x1)
Format : AC-3
Format/Info : Audio Coding 3
Mode extension : CM (complete main)
Format settings, Endianness : Big
Codec ID : 129
Duration : 1h 30mn
Bit rate mode : Constant
Bit rate : 192 Kbps
Channel(s) : 2 channels
Channel positions : Front: L R
Sampling rate : 48.0 KHz
Compression mode : Lossy
Stream size : 124 MiB (4%)
Language : French

To download the content you need:
1. Download and install torrent client [for Windows] or for mobile system
2. Click on [Download]
Attention.
If the test YOU are NOT a ROBOT - does not work, then You are using an outdated browser.
Install the current browser and click on [Download]

Do not work with Yandex browser. Uploading files to them is erroneous.
Security: torrent client is allowed by Kaspersky.

[en.asmlocator.ru].t4317.torrent 
Torrent: Registered [ 2015-11-30 05:45 ] · C60D2AF92CBBA44B79DEEAF59216C5A119A87422

Download .torrent

Download

14 KB

Status: checked
Completed: 0 times
Size: 2.75 GB
terms.php
[Profile] [PM]
Display posts:    
Reply to topic

Current time is: 03-Apr 10:11

All times are UTC ± 0



You cannot post new topics in this forum
You cannot reply to topics in this forum
You cannot edit your posts in this forum
You cannot delete your posts in this forum
You cannot vote in polls in this forum
You cannot attach files in this forum
You can download files in this forum
Верим фактам, а не вранью Путина! Факт, что Правительство ведёт Россию к истреблению.
Так как численность населения падает, даже не смотря на приток эмигрантов!
Русская нация вымирает и вырождается, смешиваясь с эмигрантами!
Факт, что военных и граждан предприятий заставляют голосовать за партию Единая Россия и Путина
ПОД СТРАХОМ УВОЛЬНЕНИЯ!
Нам не нужно Правительство, блокирующее личную жизнь, интернет, нарушающее сохранность данных.
Все эти действия финансируются за счёт народа!