Осведомитель / L\'indic (Серж Леруа / Serge Leroy) [1983, Франция, криминал, TVRip] MVO ("ОРТ") + Original Fre

Reply to topic
DL-List and Torrent activity
Size:  1.47 GB   |    Registered:  4 years 4 months   |    Completed:  0 times

Seeder not seen: Never

 
   
 
 
Author Message

star21 ®

Gender: Female

Longevity: 4 years 5 months

Posts: 551945

Location: Екатеринбург

Post 30-Nov-2015 05:54

[Quote]

Осведомитель / L'indic
Страна: Франция
Жанр: криминал
Год выпуска: 1983
Продолжительность: 01:30;27
Перевод: Профессиональный (многоголосый закадровый) - "ОРТ"
Cубтитры: нет
Оригинальная аудиодорожка: французский
Режиссер: Серж Леруа / Serge Leroy
В ролях: Даниель Отой, Тьерри Лермитт, Паскаль Рокар, Мишель Бон, Кристиан Буйетт, Мари-Катерина Конти, Даниель Дюру, Бернар-Пьер Доннадье, Жан-Луи Эйрола, Гилберт Баон ...
Описание: Молодая провинциальная девушка Сильвия разрывается между двумя знакомыми мужчинами — полицейским Бертраном и Домиником, ведущим двойную жизнь и возглавляющим одну из городских банд. Бертран предлагает ей стать его осведомительницей, и Сильвия не знает, что делать — она полюбила Доминика…
Доп. информация: Рип сделан из этого-- [imdb]http://www.imdb.com/title/tt0085725[/imdb]--L'indic (1983)_TVRip_Sample_.avi--Качество видео: TVRip
Формат видео: AVI
Видео: 656x400 (1.64:1), 25 fps, XviD build 50 ~1920 kbps avg, 0.29 bit/pixel
Аудио 1: 48 kHz, AC3 Dolby Digital, 2/0 (L,R) ch, ~192 kbps, Русский
Аудио 2: 48 kHz, AC3 Dolby Digital, 2/0 (L,R) ch, ~192 kbps, французский

AviInfo

File: L'indic (1983)_TVRip_.avi
Title: L'indic (1983)
Copyleft: Ripped_by_rjhlb777
Genre: Crime
Category: Movie
Comment: MVO ("ОРТ") + Original Fre
FileSize: 1501.16 Mb ( 1 574 080 512 bytes )
Play length: 01:30:27.160 (135679 frames)
Subtitles: Not Present
Video: 656x400 (1.64:1), 25 fps, XviD build 50 ~1920 kbps avg, 0.29 bit/pixel
Audio #1: 48 kHz, AC3 Dolby Digital, 2/0 (L,R) ch, ~192 kbps
Audio #2: 48 kHz, AC3 Dolby Digital, 2/0 (L,R) ch, ~192 kbps

MediaInfo

General
Complete name : C:\Temp\_RELEASES_\L'indic (1983)_TVRip_.avi
Format : AVI
Format/Info : Audio Video Interleave
File size : 1.47 GiB
Duration : 1h 30mn
Overall bit rate : 2 320 Kbps
Movie name : L'indic (1983)
Genre : Crime
Writing application : VirtualDubMod 1.5.10.3 | www.virtualdub-fr.org || (build 2550/release)
Original source form/Name : Movie
Copyright : Ripped_by_rjhlb777
Comment : MVO ("ОРТ") + Original Fre
Video
ID : 0
Format : MPEG-4 Visual
Format profile : Advanced Simple@L5
Format settings, BVOP : 1
Format settings, QPel : No
Format settings, GMC : No warppoints
Format settings, Matrix : Default (MPEG)
Codec ID : XVID
Codec ID/Hint : XviD
Duration : 1h 30mn
Bit rate : 1 922 Kbps
Width : 656 pixels
Height : 400 pixels
Display aspect ratio : 16:10
Frame rate : 25.000 fps
Color space : YUV
Chroma subsampling : 4:2:0
Bit depth : 8 bits
Scan type : Progressive
Compression mode : Lossy
Bits/(Pixel*Frame) : 0.293
Stream size : 1.21 GiB (83%)
Writing library : XviD 1.2.1 (UTC 2008-12-04)
Audio #1
ID : 1
Format : AC-3
Format/Info : Audio Coding 3
Mode extension : CM (complete main)
Format settings, Endianness : Big
Codec ID : 2000
Duration : 1h 30mn
Bit rate mode : Constant
Bit rate : 192 Kbps
Channel(s) : 2 channels
Channel positions : Front: L R
Sampling rate : 48.0 KHz
Compression mode : Lossy
Stream size : 124 MiB (8%)
Alignment : Split accross interleaves
Interleave, duration : 40 ms (1.00 video frame)
Interleave, preload duratio : 500 ms
Audio #2
ID : 2
Format : AC-3
Format/Info : Audio Coding 3
Mode extension : CM (complete main)
Format settings, Endianness : Big
Codec ID : 2000
Duration : 1h 30mn
Bit rate mode : Constant
Bit rate : 192 Kbps
Channel(s) : 2 channels
Channel positions : Front: L R
Sampling rate : 48.0 KHz
Compression mode : Lossy
Stream size : 124 MiB (8%)
Alignment : Split accross interleaves
Interleave, duration : 40 ms (1.00 video frame)
Interleave, preload duratio : 500 ms

Скриншоты сравнения

pyatakov67
http://screenshotcomparison.com/comparison/139782/picture:3

To download the content you need:
1. Download and install torrent client [for Windows] or for mobile system
2. Click on [Download]
Attention.
If the test YOU are NOT a ROBOT - does not work, then You are using an outdated browser.
Install the current browser and click on [Download]

Do not work with Yandex browser. Uploading files to them is erroneous.
Security: torrent client is allowed by Kaspersky.

[en.asmlocator.ru].t4316.torrent 
Torrent: Registered [ 2015-11-30 05:45 ] · 0B4B695CA3D087CA87A504AD7148897DBD641405

Download .torrent

Download

15 KB

Status: checked
Completed: 0 times
Size: 1.47 GB
terms.php
[Profile] [PM]
Display posts:    
Reply to topic

Current time is: 07-Apr 19:42

All times are UTC ± 0



You cannot post new topics in this forum
You cannot reply to topics in this forum
You cannot edit your posts in this forum
You cannot delete your posts in this forum
You cannot vote in polls in this forum
You cannot attach files in this forum
You can download files in this forum
Верим фактам, а не вранью Путина! Факт, что Правительство ведёт Россию к истреблению.
Так как численность населения падает, даже не смотря на приток эмигрантов!
Русская нация вымирает и вырождается, смешиваясь с эмигрантами!
Факт, что военных и граждан предприятий заставляют голосовать за партию Единая Россия и Путина
ПОД СТРАХОМ УВОЛЬНЕНИЯ!
Нам не нужно Правительство, блокирующее личную жизнь, интернет, нарушающее сохранность данных.
Все эти действия финансируются за счёт народа!