Попавший в западню / Rigged (Клаудио М. Катри, Джеффресон Ричард / Claudio M. Cutry, Jefferson Richard) [1986, США, Триллер, детектив, DVDRip] AVO Кашкин

Reply to topic
DL-List and Torrent activity
Size:  1.45 GB   |    Registered:  4 years 4 months   |    Completed:  0 times

Seeder not seen: Never

 
   
 
 
Author Message

star21 ®

Gender: Female

Longevity: 4 years 5 months

Posts: 551945

Location: Екатеринбург

Post 30-Nov-2015 05:54

[Quote]

Попавший в западню / Rigged
Страна: США
Жанр: Триллер, детектив
Год выпуска: 1986
Продолжительность: 1:32:59
Перевод: Авторский (одноголосый закадровый) А . Кашкин
Cубтитры: нет
Режиссер: Клаудио М. Катри , Джефферсон Ричард / Claudio M. Cutry, Jefferson Richard
В ролях: Кен Роберсон , Джордж Кеннеди , Памела Джин Брайант , Дэне Антон , Джордж «Бак» Флауэр , Джон Керли ,
Джон Ф. Гофф , Рамон Гонзалез Куэвас , Крис Кинкейд , Рэндолл Оливер
Описание: Владелец крупной компаниии Бенджамин знакомит преуспевающего бизнесмена Мэйсона со своей молодой и безумно красивой женой Моникой. Между Моникой и Мэйсоном вспыхивает страстный любовный роман.
Мэйсон и подумать не мог, что Бенджамин связан с контрабандой наркотиков, а на него самого вскоре ляжет подозрение в убийстве офицера полиции.
Доп. информация: За дорогу из VHS рипа огромная благодарность GGGENNN
Сэмпл: https://www.sendspace.com/file/6xfa80
Качество видео: DVDRip
Формат видео: AVI
Видео: XviD MPEG-4 , 640x480 (1.33:1) , 25.000 fps , 2 035 Kbps
Аудио: AC3 , 48 kHz , 192.00 kbps avg , 2/0 (L,R) ch (Корпорация АРЕНА)

MediaInfo

Complete name Попавший в западню 1986.avi
Format : AVI
Format/Info : Audio Video Interleave
File size : 1.45 GiB
Duration : 1h 32mn
Overall bit rate : 2 237 Kbps
Writing application : VirtualDubMod 1.5.10.3 | www.virtualdub-fr.org || (build 2550/release)
Writing library : VirtualDub build 35491/release
Video
ID : 0
Format : MPEG-4 Visual
Format profile : Advanced Simple@L5
Format settings, BVOP : No
Format settings, QPel : No
Format settings, GMC : No warppoints
Format settings, Matrix : Default (MPEG)
Codec ID : XVID
Codec ID/Hint : XviD
Duration : 1h 32mn
Bit rate : 2 035 Kbps
Width : 640 pixels
Height : 480 pixels
Display aspect ratio : 4:3
Frame rate : 25.000 fps
Color space : YUV
Chroma subsampling : 4:2:0
Bit depth : 8 bits
Scan type : Progressive
Compression mode : Lossy
Bits/(Pixel*Frame) : 0.265
Stream size : 1.32 GiB (91%)
Writing library : XviD 1.2.1 (UTC 2008-12-04)
Audio
ID : 1
Format : AC-3
Format/Info : Audio Coding 3
Mode extension : CM (complete main)
Format settings, Endianness : Big
Codec ID : 2000
Duration : 1h 32mn
Bit rate mode : Constant
Bit rate : 192 Kbps
Channel(s) : 2 channels
Channel positions : Front: L R
Sampling rate : 48.0 KHz
Compression mode : Lossy
Stream size : 128 MiB (9%)
Alignment : Aligned on interleaves
Interleave, duration : 40 ms (1.00 video frame)
Interleave, preload duratio : 512 ms

To download the content you need:
1. Download and install torrent client [for Windows] or for mobile system
2. Click on [Download]
Attention.
If the test YOU are NOT a ROBOT - does not work, then You are using an outdated browser.
Install the current browser and click on [Download]

Do not work with Yandex browser. Uploading files to them is erroneous.
Security: torrent client is allowed by Kaspersky.

[en.asmlocator.ru].t4313.torrent 
Torrent: Registered [ 2015-11-30 05:45 ] · AEF10BD8FCEDC45DD006EE058365DBC5B6616F0D

Download .torrent

Download

15 KB

Status: checked
Completed: 0 times
Size: 1.45 GB
terms.php
[Profile] [PM]
Display posts:    
Reply to topic

Current time is: 07-Apr 19:04

All times are UTC ± 0



You cannot post new topics in this forum
You cannot reply to topics in this forum
You cannot edit your posts in this forum
You cannot delete your posts in this forum
You cannot vote in polls in this forum
You cannot attach files in this forum
You can download files in this forum
Верим фактам, а не вранью Путина! Факт, что Правительство ведёт Россию к истреблению.
Так как численность населения падает, даже не смотря на приток эмигрантов!
Русская нация вымирает и вырождается, смешиваясь с эмигрантами!
Факт, что военных и граждан предприятий заставляют голосовать за партию Единая Россия и Путина
ПОД СТРАХОМ УВОЛЬНЕНИЯ!
Нам не нужно Правительство, блокирующее личную жизнь, интернет, нарушающее сохранность данных.
Все эти действия финансируются за счёт народа!