Плевать хотел / Lo Sam Zayin / I Don\'t Give a Damn (Шмуэль Имберман / Shmuel Imberman) [1987, Израиль, драма, DVDRip] Sub Rus + Original Heb

Reply to topic
DL-List and Torrent activity
Size:  1.33 GB   |    Registered:  4 years 4 months   |    Completed:  0 times

Seeder not seen: Never

 
   
 
 
Author Message

star21 ®

Gender: Female

Longevity: 4 years 4 months

Posts: 551945

Location: Екатеринбург

Post 30-Nov-2015 05:54

[Quote]

Плевать хотел / Lo Sam Zayin \ I Don't Give a Damn
Страна: Израиль
Жанр: драма
Год выпуска: 1987
Продолжительность: 01:31:16
Перевод: Субтитры
Cубтитры: русские
Оригинальная аудиодорожка: иврит
Режиссер: Шмуэль Имберман \ Shmuel Imberman
В ролях: Ика Зохар, Анат Ваксман, Шмуэль Виложный, Шломо Таршиш
Описание: Во время боя Рафи получает тяжелое ранение и остается парализованным в нижней части тела. Удрученной этим Рафи набрасывается на всех, кто пытается ему помочь, в том числе и на свою девушку, Ниру и семью, которая пытается окружить его заботой.
Доп. информация: Номинант от Израиля на Оскар 1987.
Огромное спасибо abraka за предоставленную телевизионную запись с субтитрами.
Сэмпл: http://multi-up.com/1063842
Качество видео: DVDRip
Формат видео: AVI
Видео: Xvid 688x512 25fps 1877kbps [Video 0]
Аудио: Dolby AC3 48000Hz stereo 192kbps [Audio 1]
Формат субтитров: softsub (SRT)

пример субтитров

21
00:01:19,250 --> 00:01:21,440
Призывать девушек - пустая
трата времени. Зачем это тебе?
22
00:01:21,570 --> 00:01:23,800
Оставайся дома, свяжи что-нибудь.
- Козел.
23
00:01:23,970 --> 00:01:26,640
Что-то в этом есть.
- Нет нет, секунду, секунду, Тали, послушай,
24
00:01:27,150 --> 00:01:31,990
Каждые 10-12 лет бывает война недавно была,
и теперь у нас есть несколько лет в запасе.
25
00:01:32,010 --> 00:01:33,910
Война, война... Думаешь, ты сможешь
встать перед человеком и убить его?
26
00:01:33,950 --> 00:01:36,380
Ты меня спрашиваешь?
Война есть война. Это мерзость.
27
00:01:36,450 --> 00:01:38,040
Но я не хочу сидеть в сторонке,
28
00:01:38,170 --> 00:01:41,570
когда террористы проникают
в какой-нибудь киббуц и убивают детей.
29
00:01:41,610 --> 00:01:43,040
Да, знаешь, что меня пугает?
30
00:01:43,210 --> 00:01:45,200
Вдруг нам придется стоять
перед 90-летним стариком
31
00:01:45,360 --> 00:01:46,840
и решать, нажимать на курок
или нет.
32
00:01:47,010 --> 00:01:50,390
Что я увижу детей, которым стреляют
в голову, и останусь равнодушным.
33
00:01:50,530 --> 00:01:52,920
Я хочу повзрослеть,
но не хочу меняться.
34
00:03:22,730 --> 00:03:28,720
Все, кто находится в доме,
выходите наружу.
35
00:03:36,610 --> 00:03:40,200
Еще раз.
- Выходите наружу.
36
00:04:00,090 --> 00:04:01,560
Вперед, в атаку.
37
00:04:01,690 --> 00:04:03,280
Что у тебя? Скажи что-нибудь!
38
00:04:05,090 --> 00:04:07,120
Вызовите вертолет.
Вызовите вертолет!
39
00:04:07,250 --> 00:04:10,640
Дани! Вызови спасателей, вертолет!
40
00:04:13,850 --> 00:04:17,880
Больно.
- Арик подними голову. Подними капельницу
41
00:04:19,040 --> 00:04:20,960
Что с вертолетом?
42
00:04:23,370 --> 00:04:25,200
Вертолет!

MediaInfo

General
Complete name : D:\Downloads\Plevat hotel\Plevat hotel.avi
Format : AVI
Format/Info : Audio Video Interleave
File size : 1.33 GiB
Duration : 1h 31mn
Overall bit rate : 2 079 Kbps
Video
ID : 0
Format : MPEG-4 Visual
Format profile : Advanced Simple@L5
Format settings, BVOP : 2
Format settings, QPel : No
Format settings, GMC : No warppoints
Format settings, Matrix : Default (H.263)
Codec ID : XVID
Codec ID/Hint : XviD
Duration : 1h 31mn
Bit rate : 1 878 Kbps
Width : 688 pixels
Height : 512 pixels
Display aspect ratio : 4:3
Frame rate : 25.000 fps
Color space : YUV
Chroma subsampling : 4:2:0
Bit depth : 8 bits
Scan type : Progressive
Compression mode : Lossy
Bits/(Pixel*Frame) : 0.213
Stream size : 1.20 GiB (90%)
Writing library : XviD 73
Audio
ID : 1
Format : AC-3
Format/Info : Audio Coding 3
Mode extension : CM (complete main)
Format settings, Endianness : Big
Codec ID : 2000
Duration : 1h 31mn
Bit rate mode : Constant
Bit rate : 192 Kbps
Channel(s) : 2 channels
Channel positions : Front: L R
Sampling rate : 48.0 KHz
Bit depth : 16 bits
Compression mode : Lossy
Stream size : 125 MiB (9%)
Alignment : Split accross interleaves
Interleave, duration : 40 ms (1.00 video frame)
Interleave, preload duration : 500 ms

Скриншоты





To download the content you need:
1. Download and install torrent client [for Windows] or for mobile system
2. Click on [Download]
Attention.
If the test YOU are NOT a ROBOT - does not work, then You are using an outdated browser.
Install the current browser and click on [Download]

Do not work with Yandex browser. Uploading files to them is erroneous.
Security: torrent client is allowed by Kaspersky.

[en.asmlocator.ru].t4311.torrent 
Torrent: Registered [ 2015-11-30 05:45 ] · 1A314D57A2CB7D6DB9BCA8D2B4CFAE650F927D17

Download .torrent

Download

14 KB

Status: checked
Completed: 0 times
Size: 1.33 GB
terms.php
[Profile] [PM]
Display posts:    
Reply to topic

Current time is: 03-Apr 11:08

All times are UTC ± 0



You cannot post new topics in this forum
You cannot reply to topics in this forum
You cannot edit your posts in this forum
You cannot delete your posts in this forum
You cannot vote in polls in this forum
You cannot attach files in this forum
You can download files in this forum
Верим фактам, а не вранью Путина! Факт, что Правительство ведёт Россию к истреблению.
Так как численность населения падает, даже не смотря на приток эмигрантов!
Русская нация вымирает и вырождается, смешиваясь с эмигрантами!
Факт, что военных и граждан предприятий заставляют голосовать за партию Единая Россия и Путина
ПОД СТРАХОМ УВОЛЬНЕНИЯ!
Нам не нужно Правительство, блокирующее личную жизнь, интернет, нарушающее сохранность данных.
Все эти действия финансируются за счёт народа!