Новобранцы в пансионе / Подземный вход в женский пансион / Les bidasses au pensionnat (Мишель Вокоре / Michel Vocoret) [1978, Франция, Комедия, TVRip] DVO + Original Fre

Reply to topic
DL-List and Torrent activity
Size:  1.43 GB   |    Registered:  4 years 4 months   |    Completed:  1 time

Seeder not seen: 3 months 20 days

 
   
 
 
Author Message

star21 ®

Gender: Female

Longevity: 4 years 5 months

Posts: 551945

Location: Екатеринбург

Post 30-Nov-2015 05:54

[Quote]

Новобранцы в пансионе / Подземный вход в женский пансион / Les bidasses au pensionnat
Страна: Франция
Жанр: Комедия
Год выпуска: 1978
Продолжительность: 01:30:08
Перевод: Профессиональный (двухголосый закадровый)
Cубтитры: нет
Оригинальная аудиодорожка: французский
Режиссер: Мишель Вокоре / Michel Vocoret
В ролях: Жан-Марк Тибо, Жак Чазо, Сильвен Шамаранд, Жак Жуанно, Мишель Модо, Жаклин Гай, Коринн Корсон, Морис Иллуз, Катя Ченко, Бубуль, Дэнис Лефевр, Шарль Жерар, Кристиана Мюллер, Бриджитт Шамаранд, Флоранс Брюно, Изабель Со, Паскаль Мондж, Паскаль Рэйнод, Ив Коллиньон, Дидье Руссе, Ален Дюбуа, Мишель Монтанери, Томас Чартьер, Катя Амертон
Описание: Молодые призывники тайно ночью копают подземный туннель, чтобы попасть в школу-интернат для девушек, расположенную в передней части своих казармах. Сексуальные девушки тоже копают туннель навстречу... Надо сказать, что капитан Джолли не пример для своих новобранцев. Все ночи этот Дон Жуан проводит с директрисой пансиона...
Доп. информация: Релиз
Большое спасибо за предоставленную видеокассету yanina.tet
Оцифровка кассеты и синхронизация дорожки Urasiko
Рип из сети
Альтернативная раздача
Сэмпл: http://multi-up.com/1063925
Качество видео: TVRip
Формат видео: AVI
Видео: DivX, 656x368 (1.78:1), 25 fps, 1996 kbps avg, 0.33 bit/pixel
Аудио: Русский: MP3, 48 KHz, 128 Kbps, 2 channels
Аудио 2: Французский: MP3, 48 KHz, 128 Kbps, 2 channels

MediaInfo

General
Complete name : F:\Les bidasses au pensionnat (1978) Ru.avi
Format : AVI
Format/Info : Audio Video Interleave
File size : 1.43 GiB
Duration : 1h 30mn
Overall bit rate : 2 268 Kbps
Video
ID : 0
Format : MPEG-4 Visual
Format settings, BVOP : 1
Format settings, QPel : No
Format settings, GMC : No warppoints
Format settings, Matrix : Default (H.263)
Codec ID : DX50
Codec ID/Hint : DivX 5
Duration : 1h 30mn
Bit rate : 1 997 Kbps
Width : 656 pixels
Height : 368 pixels
Display aspect ratio : 16:9
Frame rate : 25.000 fps
Color space : YUV
Chroma subsampling : 4:2:0
Bit depth : 8 bits
Scan type : Progressive
Compression mode : Lossy
Bits/(Pixel*Frame) : 0.331
Stream size : 1.26 GiB (88%)
Writing library : DivX 6.8.5 (UTC 2009-08-20)
Audio #1
ID : 1
Format : MPEG Audio
Format version : Version 1
Format profile : Layer 3
Mode : Joint stereo
Mode extension : MS Stereo
Codec ID : 55
Codec ID/Hint : MP3
Duration : 1h 30mn
Bit rate mode : Constant
Bit rate : 128 Kbps
Channel(s) : 2 channels
Sampling rate : 48.0 KHz
Compression mode : Lossy
Stream size : 82.5 MiB (6%)
Alignment : Split accross interleaves
Interleave, duration : 40 ms (1.00 video frame)
Interleave, preload duration : 500 ms
Audio #2
ID : 2
Format : MPEG Audio
Format version : Version 1
Format profile : Layer 3
Mode : Joint stereo
Mode extension : MS Stereo
Codec ID : 55
Codec ID/Hint : MP3
Duration : 1h 30mn
Bit rate mode : Constant
Bit rate : 128 Kbps
Channel(s) : 2 channels
Sampling rate : 48.0 KHz
Compression mode : Lossy
Stream size : 82.5 MiB (6%)
Alignment : Aligned on interleaves
Interleave, duration : 40 ms (1.00 video frame)
Interleave, preload duration : 504 ms
Writing library : LAME3.97
Encoding settings : -m j -V 4 -q 2 -lowpass 17 -b 128

Скриншот c названием фильма

Скриншоты

To download the content you need:
1. Download and install torrent client [for Windows] or for mobile system
2. Click on [Download]
Attention.
If the test YOU are NOT a ROBOT - does not work, then You are using an outdated browser.
Install the current browser and click on [Download]

Do not work with Yandex browser. Uploading files to them is erroneous.
Security: torrent client is allowed by Kaspersky.

[en.asmlocator.ru].t4308.torrent 
Torrent: Registered [ 2015-11-30 05:45 ] · 0A3566B3A83A9D1EF22684AEF0CEE5AF600933A8

Download .torrent

Download

15 KB

Status: checked
Completed: 1 times
Size: 1.43 GB
terms.php
[Profile] [PM]
Display posts:    
Reply to topic

Current time is: 07-Apr 18:55

All times are UTC ± 0



You cannot post new topics in this forum
You cannot reply to topics in this forum
You cannot edit your posts in this forum
You cannot delete your posts in this forum
You cannot vote in polls in this forum
You cannot attach files in this forum
You can download files in this forum
Верим фактам, а не вранью Путина! Факт, что Правительство ведёт Россию к истреблению.
Так как численность населения падает, даже не смотря на приток эмигрантов!
Русская нация вымирает и вырождается, смешиваясь с эмигрантами!
Факт, что военных и граждан предприятий заставляют голосовать за партию Единая Россия и Путина
ПОД СТРАХОМ УВОЛЬНЕНИЯ!
Нам не нужно Правительство, блокирующее личную жизнь, интернет, нарушающее сохранность данных.
Все эти действия финансируются за счёт народа!