Час убийцы / Hour of the Assassin (Луис Ллоса / Luis Llosa) [1987, Перу, США, Боевик, VHSRip] VO (Михаил Загот)

Reply to topic
DL-List and Torrent activity
Size:  1.33 GB   |    Registered:  4 years 4 months   |    Completed:  0 times

Seeder not seen: Never

 
   
 
 
Author Message

star21 ®

Gender: Female

Longevity: 4 years 4 months

Posts: 551945

Location: Екатеринбург

Post 30-Nov-2015 05:54

[Quote]

Час убийцы / Hour of the Assassin

Страна: Перу, США
Жанр: Боевик
Год выпуска: 1987
Продолжительность: 01:33:11
Перевод: Одноголосый закадровый Михаил Загот

скрытый текст

Михаил Александрович Загот, профессиональный переводчик, член Союза Переводчиков России, Союза Писателей России и шансонье.
Его голос знаком многим. Особенно тем, кто в 1980-ые годы заглядывал в видеосалоны, или покупал видеокассеты. Михаил Александрович один из первых на заре прихода к нам западного кино мастерски переводил фильмы.
Переводил видео лет 8, примерно с 1985 по 1993. Фильмы: DEATH BECOMES HER, GUILTY AS SIN, TAXI DRIVER, ONCE UPON A TIME IN AMERICA, FISH CALLED WANDA, SINGLE WHITE FEMALE, BIRDS, KING DAVID, AMERICAN GIGOLO и многие другие......
Cубтитры: нет
Режиссер: Луис Ллоса / Luis Llosa
В ролях: Эрик Эстрада, Роберт Вон, Альфредо Альварес Кальдерон, Орландо Саша, Рейнальдо Аренас, Лурдес Бернинзон, Рамон Гарсия, Освальдо Фернандез, Рамон Гарсия Рибейро, Густаво МакЛеннан
Описание: Профессиональный убийца отправляется из Лос-Анджелеса в Латинскую Америку, чтобы устранить только что избранного демократического президента. Агент ЦРУ получает задание остановить киллера.
Доп. информация: Звуковая дорожка синхронизирована и наложена ale_x2008 при помощи Adobe Audition, Sony Vegas и VirtualDubMod.
За оцифрованную с VHS дорожку благодарим - Анна57

Релиз
Сэмпл: https://yadi.sk/i/Dlov34PtigbBT
Качество видео: VHSRip
Формат видео: AVI
Видео: XviD build 50, 640x480 (1.33:1), 23.976 fps, 1835 kbps avg, 0.25 bit/pixel
Аудио: AC3 Dolby Digital, 48000Hz, 2/0 (L,R) ch (mono), 192.00 kbps avg

MediaInfo

Час убийцы - Hour of the Assassin [by ale_x2008].avi
Format : AVI
Format/Info : Audio Video Interleave
File size : 1.33 GiB
Duration : 1h 33mn
Overall bit rate : 2 037 Kbps
Movie name : Час убийцы - Hour of the Assassin [by ale_x2008]
Director : by ale_x2008
Writing application : VirtualDubMod 1.5.10.3 (build 2550/release)
Copyright : Edich2
Comment : RuTracker.org
Video
ID : 0
Format : MPEG-4 Visual
Format profile : Advanced Simple@L5
Format settings, BVOP : 1
Format settings, QPel : No
Format settings, GMC : No warppoints
Format settings, Matrix : Default (MPEG)
Codec ID : XVID
Codec ID/Hint : XviD
Duration : 1h 33mn
Bit rate : 1 836 Kbps
Width : 640 pixels
Height : 480 pixels
Display aspect ratio : 4:3
Frame rate : 23.976 fps
Color space : YUV
Chroma subsampling : 4:2:0
Bit depth : 8 bits
Scan type : Progressive
Compression mode : Lossy
Bits/(Pixel*Frame) : 0.249
Stream size : 1.20 GiB (90%)
Writing library : XviD 1.2.1 (UTC 2008-12-04)
Audio
ID : 1
Format : AC-3
Format/Info : Audio Coding 3
Mode extension : CM (complete main)
Format settings, Endianness : Big
Codec ID : 2000
Duration : 1h 33mn
Bit rate mode : Constant
Bit rate : 192 Kbps
Channel(s) : 2 channels
Channel positions : Front: L R
Sampling rate : 48.0 KHz
Bit depth : 16 bits
Compression mode : Lossy
Stream size : 128 MiB (9%)
Alignment : Split accross interleaves
Interleave, duration : 42 ms (1.00 video frame)
Interleave, preload duration : 500 ms

Скриншоты



To download the content you need:
1. Download and install torrent client [for Windows] or for mobile system
2. Click on [Download]
Attention.
If the test YOU are NOT a ROBOT - does not work, then You are using an outdated browser.
Install the current browser and click on [Download]

Do not work with Yandex browser. Uploading files to them is erroneous.
Security: torrent client is allowed by Kaspersky.

[en.asmlocator.ru].t4307.torrent 
Torrent: Registered [ 2015-11-30 05:45 ] · BD01D486D7815C8AB393CF26CDEFA579249896E5

Download .torrent

Download

14 KB

Status: checked
Completed: 0 times
Size: 1.33 GB
terms.php
[Profile] [PM]
Display posts:    
Reply to topic

Current time is: 05-Apr 03:15

All times are UTC ± 0



You cannot post new topics in this forum
You cannot reply to topics in this forum
You cannot edit your posts in this forum
You cannot delete your posts in this forum
You cannot vote in polls in this forum
You cannot attach files in this forum
You can download files in this forum
Верим фактам, а не вранью Путина! Факт, что Правительство ведёт Россию к истреблению.
Так как численность населения падает, даже не смотря на приток эмигрантов!
Русская нация вымирает и вырождается, смешиваясь с эмигрантами!
Факт, что военных и граждан предприятий заставляют голосовать за партию Единая Россия и Путина
ПОД СТРАХОМ УВОЛЬНЕНИЯ!
Нам не нужно Правительство, блокирующее личную жизнь, интернет, нарушающее сохранность данных.
Все эти действия финансируются за счёт народа!