Обученные убивать / Приученный убивать / Trained to Kill (Х. Кэй Дайал / H. Kaye Dyal) [1989, США, Боевик, VHSRip] AVO Сергей Визгунов + AVO Юрий Сербин

Reply to topic
DL-List and Torrent activity
Size:  1.53 GB   |    Registered:  4 years 3 months   |    Completed:  0 times

Seeder not seen: Never

 
   
 
 
Author Message

star21 ®

Gender: Female

Longevity: 4 years 4 months

Posts: 551945

Location: Екатеринбург

Post 30-Nov-2015 05:54

[Quote]

Обученные убивать / Приученный убивать / Trained to Kill
Страна: США
Жанр: Боевик
Год выпуска: 1989
Продолжительность: 01:29:13
Перевод 1: Авторский (одноголосый закадровый) Сергей Визгунов
Перевод 2: Авторский (одноголосый закадровый) Юрий Сербин
Cубтитры: нет
Режиссер: Х. Кэй Дайал / H. Kaye Dyal
В ролях: Фрэнк Загарино , Глен Итон, Лайза Алифф, Маршалл Тиг , Арлин Голонка , Роберт З'Дар, Хэролд Даймонд , Рон О'Нил , Хенри Силва , Чак Коннорс
Описание: У папаши Купера есть симпатичная супруга Марта и куча светловолосых детей от Марты. Но в свое время Купер, судя по всему, был весьма любвеобилен. Из Камбоджи приезжает его вновь обретенный сын, темноволосый смуглый Сэм. В подарок папе от мамы он везет статуэтку, украшенную красным бриллиантом. За драгоценностью охотятся мафиози... Мафиози Бренер и мафиози Меджик недавно удрали из тюрьмы, куда их засадил папаша Купер. Неудивительно, что они жаждут встречи с Купером даже независимо от красного бриллианта. После кровавого свиданьица прах Купера и Марты развеян по ветру, многочисленные младшие дети делись неизвестно куда, а старшие - блондин Мэтт и вышеупомянутый брюнет Сэм - решили отомстить
Доп. информация: За предоставленный материал благодарность alenavova , edich2 , Glowamy , Fikaloid , Sergunka172
Сэмпл: https://www.sendspace.com/file/tg1hge
Качество видео: VHSRip
Формат видео: AVI
Видео: 640x480 (1.33:1), 25 fps, XviD build 50 ~2049 kbps avg
Аудио:
48 kHz, AC3 Dolby Digital, 2/0 (L,R) ch, ~192 kbps (Визгунов)
48 kHz, AC3 Dolby Digital, 2/0 (L,R) ch, ~192 kbps (Сербин)

MediaInfo

Complete name Обученные убивать 1989.avi
Format : AVI
Format/Info : Audio Video Interleave
File size : 1.53 GiB
Duration : 1h 29mn
Overall bit rate : 2 448 Kbps
Movie name : Обученные убивать - Trained to Kill [by alenavova]
Director : Rip by alenavova
Writing application : VirtualDubMod 1.5.10.3 | www.virtualdub-fr.org || (build 2550/release)
Writing library : VirtualDubMod build 2550/release
Copyright : Edich2
Comment : RuTracker.org
Video
ID : 0
Format : MPEG-4 Visual
Format profile : Advanced Simple@L5
Format settings, BVOP : 2
Format settings, QPel : No
Format settings, GMC : No warppoints
Format settings, Matrix : Custom
Codec ID : XVID
Codec ID/Hint : XviD
Duration : 1h 29mn
Bit rate : 2 050 Kbps
Width : 640 pixels
Height : 480 pixels
Display aspect ratio : 4:3
Frame rate : 25.000 fps
Color space : YUV
Chroma subsampling : 4:2:0
Bit depth : 8 bits
Scan type : Progressive
Compression mode : Lossy
Bits/(Pixel*Frame) : 0.267
Stream size : 1.28 GiB (84%)
Writing library : XviD 1.2.1 (UTC 2008-12-04)
Audio #1
ID : 1
Format : AC-3
Format/Info : Audio Coding 3
Mode extension : CM (complete main)
Format settings, Endianness : Big
Codec ID : 2000
Duration : 1h 29mn
Bit rate mode : Constant
Bit rate : 192 Kbps
Channel(s) : 2 channels
Channel positions : Front: L R
Sampling rate : 48.0 KHz
Compression mode : Lossy
Stream size : 123 MiB (8%)
Alignment : Aligned on interleaves
Interleave, duration : 40 ms (1.00 video frame)
Interleave, preload duratio : 512 ms
Audio #2
ID : 2
Format : AC-3
Format/Info : Audio Coding 3
Mode extension : CM (complete main)
Format settings, Endianness : Big
Codec ID : 2000
Duration : 1h 29mn
Bit rate mode : Constant
Bit rate : 192 Kbps
Channel(s) : 2 channels
Channel positions : Front: L R
Sampling rate : 48.0 KHz
Compression mode : Lossy
Stream size : 123 MiB (8%)
Alignment : Split accross interleaves
Interleave, duration : 40 ms (1.00 video frame)
Interleave, preload duratio : 500 ms

Скриншоты

To download the content you need:
1. Download and install torrent client [for Windows] or for mobile system
2. Click on [Download]
Attention.
If the test YOU are NOT a ROBOT - does not work, then You are using an outdated browser.
Install the current browser and click on [Download]

Do not work with Yandex browser. Uploading files to them is erroneous.
Security: torrent client is allowed by Kaspersky.

[en.asmlocator.ru].t4302.torrent 
Torrent: Registered [ 2015-11-30 05:45 ] · 33D804581E67DC23E963B515E6E93783C7BAB2FD

Download .torrent

Download

16 KB

Status: checked
Completed: 0 times
Size: 1.53 GB
terms.php
[Profile] [PM]
Display posts:    
Reply to topic

Current time is: 29-Mar 00:02

All times are UTC ± 0



You cannot post new topics in this forum
You cannot reply to topics in this forum
You cannot edit your posts in this forum
You cannot delete your posts in this forum
You cannot vote in polls in this forum
You cannot attach files in this forum
You can download files in this forum
Верим фактам, а не вранью Путина! Факт, что Правительство ведёт Россию к истреблению.
Так как численность населения падает, даже не смотря на приток эмигрантов!
Русская нация вымирает и вырождается, смешиваясь с эмигрантами!
Факт, что военных и граждан предприятий заставляют голосовать за партию Единая Россия и Путина
ПОД СТРАХОМ УВОЛЬНЕНИЯ!
Нам не нужно Правительство, блокирующее личную жизнь, интернет, нарушающее сохранность данных.
Все эти действия финансируются за счёт народа!