Двойник / Take Two (Питер Роу / Peter Rowe) [1988, США, триллер, мелодрама, VHSRip] VO + Original Eng

Reply to topic
DL-List and Torrent activity
Size:  1.5 GB   |    Registered:  4 years 4 months   |    Completed:  0 times

Seeder not seen: 3 years 5 months

 
   
 
 
Author Message

star21 ®

Gender: Female

Longevity: 4 years 4 months

Posts: 551945

Location: Екатеринбург

Post 30-Nov-2015 05:54

[Quote]

Двойник / Take Two
Страна: США
Жанр: триллер, мелодрама
Год выпуска: 1988
Продолжительность: 01:38:53
Перевод: Одноголосый закадровый (пока неопознан)
Cубтитры: нет
Оригинальная аудиодорожка: английский
Режиссер: Питер Роу / Peter Rowe
В ролях: Фрэнк Сталлоне, Грант Гудив, Робин Мэттсон, Нита Талбот....
Описание: У суррогатной матери рождаются абсолютно похожие братья-близнецы. Одного сына она отдает его законным родителям, а второго, в тайне от всех, оставляет у себя. Шло время, мальчики выросли, и, как всегда, история о «принце и нищем» получила свое неожи-данное продолжение и кровавую развязку. Фамильное наследство толкает их на путь интриг и убийств.
Доп. информация: Благодарность:
Fikaloid - за дорожку с переводом VO с VHS
xelon2006 - за синхрон дорожки.

Ну и мне как организатору
Релиз
Сэмпл: https://yadi.sk/i/5EVpGagOihb8j
Качество видео: VHSRip
Формат видео: AVI
Видео: 512x384 (1.33:1), 23.976 fps, XviD build 50 ~1715 kbps avg, 0.36 bit/pixel
Аудио: 48 kHz, AC3 Dolby Digital, 2/0 (L,R) ch, ~192 kbps
Аудио 2: 48 kHz, AC3 Dolby Digital, 2/0 (L,R) ch, ~256 kbps Eng

MediaInfo

Двойник - Take Two [by Edich2].avi
Format : AVI
Format/Info : Audio Video Interleave
File size : 1.50 GiB
Duration : 1h 38mn
Overall bit rate : 2 178 Kbps
Movie name : Двойник - Take Two [by Edich2]
Director : by Edich2
Writing application : VirtualDubMod 1.5.10.2 (build 2540/release)
Comment : RuTracker.org
Video
ID : 0
Format : MPEG-4 Visual
Format profile : Advanced Simple@L5
Format settings, BVOP : 1
Format settings, QPel : No
Format settings, GMC : No warppoints
Format settings, Matrix : Default (MPEG)
Codec ID : XVID
Codec ID/Hint : XviD
Duration : 1h 38mn
Bit rate : 1 716 Kbps
Width : 512 pixels
Height : 384 pixels
Display aspect ratio : 4:3
Frame rate : 23.976 fps
Color space : YUV
Chroma subsampling : 4:2:0
Bit depth : 8 bits
Scan type : Progressive
Compression mode : Lossy
Bits/(Pixel*Frame) : 0.364
Stream size : 1.19 GiB (79%)
Writing library : XviD 1.2.1 (UTC 2008-12-04)
Audio #1
ID : 1
Format : AC-3
Format/Info : Audio Coding 3
Mode extension : CM (complete main)
Format settings, Endianness : Big
Codec ID : 2000
Duration : 1h 38mn
Bit rate mode : Constant
Bit rate : 192 Kbps
Channel(s) : 2 channels
Channel positions : Front: L R
Sampling rate : 48.0 KHz
Bit depth : 16 bits
Compression mode : Lossy
Stream size : 136 MiB (9%)
Alignment : Split accross interleaves
Interleave, duration : 42 ms (1.00 video frame)
Interleave, preload duration : 500 ms
Audio #2
ID : 2
Format : AC-3
Format/Info : Audio Coding 3
Mode extension : CM (complete main)
Format settings, Endianness : Big
Codec ID : 2000
Duration : 1h 38mn
Bit rate mode : Constant
Bit rate : 256 Kbps
Channel(s) : 2 channels
Channel positions : Front: L R
Sampling rate : 48.0 KHz
Bit depth : 16 bits
Compression mode : Lossy
Stream size : 181 MiB (12%)
Alignment : Split accross interleaves
Interleave, duration : 42 ms (1.00 video frame)
Interleave, preload duration : 500 ms

Скриншоты




To download the content you need:
1. Download and install torrent client [for Windows] or for mobile system
2. Click on [Download]
Attention.
If the test YOU are NOT a ROBOT - does not work, then You are using an outdated browser.
Install the current browser and click on [Download]

Do not work with Yandex browser. Uploading files to them is erroneous.
Security: torrent client is allowed by Kaspersky.

[en.asmlocator.ru].t4301.torrent 
Torrent: Registered [ 2015-11-30 05:45 ] · B0E0FF78E0A812BFCD95E020B436E9375DAD7893

Download .torrent

Download

16 KB

Status: checked
Completed: 0 times
Size: 1.5 GB
terms.php
[Profile] [PM]
Display posts:    
Reply to topic

Current time is: 03-Apr 04:51

All times are UTC ± 0



You cannot post new topics in this forum
You cannot reply to topics in this forum
You cannot edit your posts in this forum
You cannot delete your posts in this forum
You cannot vote in polls in this forum
You cannot attach files in this forum
You can download files in this forum
Верим фактам, а не вранью Путина! Факт, что Правительство ведёт Россию к истреблению.
Так как численность населения падает, даже не смотря на приток эмигрантов!
Русская нация вымирает и вырождается, смешиваясь с эмигрантами!
Факт, что военных и граждан предприятий заставляют голосовать за партию Единая Россия и Путина
ПОД СТРАХОМ УВОЛЬНЕНИЯ!
Нам не нужно Правительство, блокирующее личную жизнь, интернет, нарушающее сохранность данных.
Все эти действия финансируются за счёт народа!