Уголовный почерк / Сделано в Лос-Анджелесе / Crimewave / L.A. Takedown (Майкл Манн / Michael Mann) [1989, США, Боевик, триллер, драма, криминал, DVDRip] AVO (А. Дольский)

Reply to topic
DL-List and Torrent activity
Size:  1.37 GB   |    Registered:  4 years 4 months   |    Completed:  0 times

Seeder not seen: 1 year 1 month

 
   
 
 
Author Message

star21 ®

Gender: Female

Longevity: 4 years 4 months

Posts: 551945

Location: Екатеринбург

Post 30-Nov-2015 05:54

[Quote]

Уголовный почерк / Сделано в Лос-Анджелесе / Crimewave / L.A. Takedown
Страна: США
Жанр: Боевик, триллер, драма, криминал
Год выпуска: 1989
Продолжительность: 01:33:14
Перевод: Авторский одноголосый закадровый А. Дольский
Cубтитры: нет
Режиссер: Майкл Манн / Michael Mann
В ролях: Скотт Планк, Алекс МакАртур, Майкл Рукер, Эли Пугет, Винсент Гуастаферро, Ричард Чавес, Виктор Риверс, Лора Хэррингтон, Дэниэл Болдуин, Кларенс Гильярд мл., Р.Д. Колл, Питер Добсон, Джон Сантуччи, Ксандер Беркли, Хуан Фернандес, Сэм Дж. Джонс, Дж.В. Смит, Кэри-Хироюки Тагава, Мэри Бруссар, Аикса Клементе, Майк Де Луна, Эд Де Фуско, Роберт Гаммонс, Дональд Грант, Эмметт Греннан, Аль Джонс, Энтони Латтанцио, Лео Ли, Мими Либер, Альберт Мишель мл., Жан Манро, Гилберт О. Парра, Дэннис Скотт, Дэниэл Вильярреаль, Роберт Уинли, Энтони Уинтерс
Описание: Лос-Анджелесский детектив Винсент Ханна идет по следу банды безжалостных преступников, но по мере того, как идет расследование, он понимает, что у него есть больше общего с главарем банды, чем он ожидал. А у главаря в это время тоже появляются проблемы. Он влюбляется…
Доп. информация: Дорожка с А. Дольским ремастерирована, синхронизирована и наложена ale_x2008 при помощи iZotope RX2, Sony Vegas и VirtualDubMod.
За оцифрованную с VHS дорожку благодарим - alenavova

Релиз
Сэмпл: https://yadi.sk/i/8xigMxF6iizYK
Качество видео: DVDRip (исходник DVD5 от serg peresad)
Формат видео: AVI
Видео: 704x528 (1.33:1), 25 fps, XviD build 50 ~1905 kbps avg, 0.20 bit/pixel
Аудио: 48 kHz, AC3 Dolby Digital, 2/0 (L,R) ch, ~192 kbps

MediaInfo

Уголовный почерк - LA Takedown [by Edich2].avi
Format : AVI
Format/Info : Audio Video Interleave
File size : 1.37 GiB
Duration : 1h 32mn
Overall bit rate : 2 108 Kbps
Movie name : Уголовный почерк - LA Takedown [by Edich2]
Director : by Edich2
Writing application : VirtualDubMod 1.5.10.2 (build 2540/release)
Comment : RuTracker.org
Video
ID : 0
Format : MPEG-4 Visual
Format profile : Advanced Simple@L5
Format settings, BVOP : 1
Format settings, QPel : No
Format settings, GMC : No warppoints
Format settings, Matrix : Default (MPEG)
Codec ID : XVID
Codec ID/Hint : XviD
Duration : 1h 32mn
Bit rate : 1 906 Kbps
Width : 704 pixels
Height : 528 pixels
Display aspect ratio : 4:3
Frame rate : 25.000 fps
Color space : YUV
Chroma subsampling : 4:2:0
Bit depth : 8 bits
Scan type : Progressive
Compression mode : Lossy
Bits/(Pixel*Frame) : 0.205
Stream size : 1.24 GiB (90%)
Writing library : XviD 1.2.1 (UTC 2008-12-04)
Audio
ID : 1
Format : AC-3
Format/Info : Audio Coding 3
Mode extension : CM (complete main)
Format settings, Endianness : Big
Codec ID : 2000
Duration : 1h 32mn
Bit rate mode : Constant
Bit rate : 192 Kbps
Channel(s) : 2 channels
Channel positions : Front: L R
Sampling rate : 48.0 KHz
Bit depth : 16 bits
Compression mode : Lossy
Stream size : 128 MiB (9%)
Alignment : Split accross interleaves
Interleave, duration : 40 ms (1.00 video frame)
Interleave, preload duration : 500 ms

Скриншоты




28.08.15. ТОРРЕНТ ПЕРЕЗАЛИТ. ЗАМЕНА ВИДЕОРЯДА.

To download the content you need:
1. Download and install torrent client [for Windows] or for mobile system
2. Click on [Download]
Attention.
If the test YOU are NOT a ROBOT - does not work, then You are using an outdated browser.
Install the current browser and click on [Download]

Do not work with Yandex browser. Uploading files to them is erroneous.
Security: torrent client is allowed by Kaspersky.

[en.asmlocator.ru].t4299.torrent 
Torrent: Registered [ 2015-11-30 05:45 ] · 63CBA4A30F1707C9912435A71E536CC1072C52BD

Download .torrent

Download

14 KB

Status: checked
Completed: 0 times
Size: 1.37 GB
terms.php
[Profile] [PM]
Display posts:    
Reply to topic

Current time is: 31-Mar 17:20

All times are UTC ± 0



You cannot post new topics in this forum
You cannot reply to topics in this forum
You cannot edit your posts in this forum
You cannot delete your posts in this forum
You cannot vote in polls in this forum
You cannot attach files in this forum
You can download files in this forum
Верим фактам, а не вранью Путина! Факт, что Правительство ведёт Россию к истреблению.
Так как численность населения падает, даже не смотря на приток эмигрантов!
Русская нация вымирает и вырождается, смешиваясь с эмигрантами!
Факт, что военных и граждан предприятий заставляют голосовать за партию Единая Россия и Путина
ПОД СТРАХОМ УВОЛЬНЕНИЯ!
Нам не нужно Правительство, блокирующее личную жизнь, интернет, нарушающее сохранность данных.
Все эти действия финансируются за счёт народа!