Блестящий шар / The Glitterball (Харли Коклисс / Harley Cokeliss) [1977, Великобритания, семейный, фанстастика, DVDRip] VO + Original Eng

Reply to topic
DL-List and Torrent activity
Size:  748 MB   |    Registered:  4 years 4 months   |    Completed:  0 times

Seeder not seen: Never

 
   
 
 
Author Message

star21 ®

Gender: Female

Longevity: 4 years 5 months

Posts: 551945

Location: Екатеринбург

Post 30-Nov-2015 05:54

[Quote]

Блестящий шар / The Glitterball
Страна: Великобритания
Жанр: семейный, фанстастика
Год выпуска: 1977
Продолжительность: 00:46:27
Перевод: Одноголосый закадровый Владимир Воронцов (-Доцент-)
Cубтитры: нет
Оригинальная аудиодорожка: английский
Режиссер: Харли Коклисс / Harley Cokeliss
В ролях: Бен Бактон / Ben Buckton, Кит Джейн / Keith Jayne, Рон Пембер / Ron Pember, Марджори Йэтс / Marjorie Yates, Бэрри Джексон / Barry Jackson, Эндрю Джексон / Andrew Jackson
Описание: Два подростка пытаются помочь крошечному сферическому пришельцу вернуться на свою космическую станцию. А в это время представители ВВС и хитрый мелкий жулик гоняются за пришельцем, обладающим удивительными способностями.
Доп. информация: [imdb]http://www.imdb.com/title/tt0192075[/imdb]
Сэмпл: http://multi-up.com/1064249
Качество видео: DVDRip
Формат видео: AVI
Видео: XviD, 640x480 (4:3), 23.976 fps, 1854 kbps
Аудио: AC3, 48000 Hz, 2 ch, 192 kbps (русский)
Аудио 2: AC3, 48000 Hz, 2 ch, 192 kbps (английский)

MediaInfo

General
Complete name : F:\РУТРЕКЕР\Блестящий шар\Glitterball, The (1977).avi
Format : AVI
Format/Info : Audio Video Interleave
File size : 748 MiB
Duration : 46mn 27s
Overall bit rate : 2 252 Kbps
Writing application : VirtualDubMod 1.5.10.2 (build 2540/release)
Writing library : VirtualDubMod build 2540/release
Video
ID : 0
Format : MPEG-4 Visual
Format profile : Advanced Simple@L5
Format settings, BVOP : 1
Format settings, QPel : No
Format settings, GMC : No warppoints
Format settings, Matrix : Custom
Codec ID : XVID
Codec ID/Hint : XviD
Duration : 46mn 27s
Bit rate : 1 854 Kbps
Width : 640 pixels
Height : 480 pixels
Display aspect ratio : 4:3
Frame rate : 23.976 fps
Color space : YUV
Chroma subsampling : 4:2:0
Bit depth : 8 bits
Scan type : Progressive
Compression mode : Lossy
Bits/(Pixel*Frame) : 0.252
Stream size : 616 MiB (82%)
Writing library : XviD 1.2.1 (UTC 2008-12-04)
Audio #1
ID : 1
Format : AC-3
Format/Info : Audio Coding 3
Mode extension : CM (complete main)
Format settings, Endianness : Big
Codec ID : 2000
Duration : 46mn 27s
Bit rate mode : Constant
Bit rate : 192 Kbps
Channel(s) : 2 channels
Channel positions : Front: L R
Sampling rate : 48.0 KHz
Bit depth : 16 bits
Compression mode : Lossy
Stream size : 63.8 MiB (9%)
Alignment : Split accross interleaves
Interleave, duration : 42 ms (1.00 video frame)
Interleave, preload duration : 500 ms
Language : Russian
Audio #2
ID : 2
Format : AC-3
Format/Info : Audio Coding 3
Mode extension : CM (complete main)
Format settings, Endianness : Big
Codec ID : 2000
Duration : 46mn 27s
Bit rate mode : Constant
Bit rate : 192 Kbps
Channel(s) : 2 channels
Channel positions : Front: L R
Sampling rate : 48.0 KHz
Bit depth : 16 bits
Compression mode : Lossy
Stream size : 63.8 MiB (9%)
Alignment : Split accross interleaves
Interleave, duration : 42 ms (1.00 video frame)
Interleave, preload duration : 500 ms
Language : English

Скриншот c названием фильма

Скриншоты


To download the content you need:
1. Download and install torrent client [for Windows] or for mobile system
2. Click on [Download]
Attention.
If the test YOU are NOT a ROBOT - does not work, then You are using an outdated browser.
Install the current browser and click on [Download]

Do not work with Yandex browser. Uploading files to them is erroneous.
Security: torrent client is allowed by Kaspersky.

[en.asmlocator.ru].t4297.torrent 
Torrent: Registered [ 2015-11-30 05:45 ] · 8A7F269222F0399A2FAC9EE80C25FC869696237C

Download .torrent

Download

15 KB

Status: checked
Completed: 0 times
Size: 748 MB
terms.php
[Profile] [PM]
Display posts:    
Reply to topic

Current time is: 08-Apr 01:51

All times are UTC ± 0



You cannot post new topics in this forum
You cannot reply to topics in this forum
You cannot edit your posts in this forum
You cannot delete your posts in this forum
You cannot vote in polls in this forum
You cannot attach files in this forum
You can download files in this forum
Верим фактам, а не вранью Путина! Факт, что Правительство ведёт Россию к истреблению.
Так как численность населения падает, даже не смотря на приток эмигрантов!
Русская нация вымирает и вырождается, смешиваясь с эмигрантами!
Факт, что военных и граждан предприятий заставляют голосовать за партию Единая Россия и Путина
ПОД СТРАХОМ УВОЛЬНЕНИЯ!
Нам не нужно Правительство, блокирующее личную жизнь, интернет, нарушающее сохранность данных.
Все эти действия финансируются за счёт народа!