На охоте / The Shooting Party (Алан Бриджес / Alan Bridges) [1985, Великобритания, драма, мелодрама, DVDRip] Dub + Original Eng

Reply to topic
DL-List and Torrent activity
Size:  1.46 GB   |    Registered:  4 years 4 months   |    Completed:  0 times

Seeder not seen: Never

 
   
 
 
Author Message

star21 ®

Gender: Female

Longevity: 4 years 4 months

Posts: 551945

Location: Екатеринбург

Post 30-Nov-2015 05:54

[Quote]

На охоте / The Shooting Party
Страна: Великобритания
Жанр: драма, мелодрама
Год выпуска: 1985
Продолжительность: 01:32:43
Перевод: Профессиональный (дублированный) Советский дубляж
Cубтитры: нет
Оригинальная аудиодорожка: английский
Режиссер: Алан Бриджес /Alan Bridges
В ролях: Сэр Рэндольф Неттлби - Джей мс Мейсон /James Mason/ - Зиновий Гердт
Леди Минни Неттлби - Дороти Тьютин /Dorothy Tutin/ - Елена Соловей
Лорд Гилберт Хартлип - Эдвард Фокс /Edward Fox/ - Юрий Демич
Леди Ламна Хпртлип - Черил Кемпбелл /Cheryl Campbell/ - Галина Чигинская
Корнелиус Кардью - Джон Гилгуд /John Gielgud/ - Иннокентий Смоктуновский
Лорд Боб Лилберн - Роберт Харди /Robert Hardy/ - Игорь Ефимов
Леди Оливия Лилберн – Джуди Боукер /Judi Bowker/ - Людмила Старицына
Лайонел Стивенс – Руперт Фрейзер /Rupert Frazer/ - Евгений Леонов-Гладышев
Сэр Рубен Хергешаймер - Аарон Айпэйл /Aharon Ipalé/ - Александр Демьяненко
Описание: Осень 1913: накануне Первой мировой войны — последний год старого мира. Дамы и господа собрались в поместье Хартфордшир сэра Рэндольфа Неттлби. Все ограничено протоколом: форма одежды, завтрак, отношения с крестьянами, флирт, стрельба, прелюбодеяние. Но этот образ жизни подходит к концу — наступает новый, современный мир.
Доп. информация: Полная версия фильма. За дубляж спасибо ogrserv. Отсутствует перевод: 10.01.04-10.10.08; 29.37.16-29.39.10; 39.22.27-39.32.00; 49.10.18-49.16.13; 1.09.09.13-1.09.15.00; 1.20.23.22-1.21.07.04; 1.23.29.06-1.24.37.23.
Сэмпл: http://multi-up.com/1064291

Качество видео: DVDRip (DVD5)
Формат видео: AVI
Видео: 704x400 (1.76:1), 25 fps, XviD, 1857 kbps, 0.26 bit/pixel
Аудио 1: 48 kHz, AC3 Dolby Digital, 2/0 (L,R) ch, 192 kbps, Dub
Аудио 2: 48 kHz, AC3 Dolby Digital, 2/0 (L,R) ch, 192 kbps, Original (Eng)

MediaInfo

General
Complete name : E:\Раздачи\rutracker.org\Na_ohote_1.46_by_max1wq.avi
Format : AVI
Format/Info : Audio Video Interleave
File size : 1.46 GiB
Duration : 1h 32mn
Overall bit rate : 2 257 Kbps
Writing application : VirtualDubMod 1.5.10.2 (build 2540/release)
Writing library : VirtualDubMod build 2540/release
Video
ID : 0
Format : MPEG-4 Visual
Format profile : Advanced Simple@L5
Format settings, BVOP : 2
Format settings, QPel : No
Format settings, GMC : No warppoints
Format settings, Matrix : Custom
Codec ID : XVID
Codec ID/Hint : XviD
Duration : 1h 32mn
Bit rate : 1 859 Kbps
Width : 704 pixels
Height : 400 pixels
Display aspect ratio : 16:9
Frame rate : 25.000 fps
Color space : YUV
Chroma subsampling : 4:2:0
Bit depth : 8 bits
Scan type : Progressive
Compression mode : Lossy
Bits/(Pixel*Frame) : 0.264
Stream size : 1.20 GiB (82%)
Writing library : XviD 65
Audio #1
ID : 1
Format : AC-3
Format/Info : Audio Coding 3
Mode extension : CM (complete main)
Format settings, Endianness : Big
Codec ID : 2000
Duration : 1h 32mn
Bit rate mode : Constant
Bit rate : 192 Kbps
Channel(s) : 2 channels
Channel positions : Front: L R
Sampling rate : 48.0 KHz
Compression mode : Lossy
Stream size : 127 MiB (9%)
Alignment : Split accross interleaves
Interleave, duration : 40 ms (1.00 video frame)
Interleave, preload duration : 500 ms
Audio #2
ID : 2
Format : AC-3
Format/Info : Audio Coding 3
Mode extension : CM (complete main)
Format settings, Endianness : Big
Codec ID : 2000
Duration : 1h 32mn
Bit rate mode : Constant
Bit rate : 192 Kbps
Channel(s) : 2 channels
Channel positions : Front: L R
Sampling rate : 48.0 KHz
Compression mode : Lossy
Stream size : 127 MiB (9%)
Alignment : Split accross interleaves
Interleave, duration : 40 ms (1.00 video frame)
Interleave, preload duration : 500 ms

To download the content you need:
1. Download and install torrent client [for Windows] or for mobile system
2. Click on [Download]
Attention.
If the test YOU are NOT a ROBOT - does not work, then You are using an outdated browser.
Install the current browser and click on [Download]

Do not work with Yandex browser. Uploading files to them is erroneous.
Security: torrent client is allowed by Kaspersky.

[en.asmlocator.ru].t4296.torrent 
Torrent: Registered [ 2015-11-30 05:45 ] · 259CA86F2EDC7D8DE7005658A0C6E501AFD40471

Download .torrent

Download

15 KB

Status: checked
Completed: 0 times
Size: 1.46 GB
terms.php
[Profile] [PM]
Display posts:    
Reply to topic

Current time is: 04-Apr 15:12

All times are UTC ± 0



You cannot post new topics in this forum
You cannot reply to topics in this forum
You cannot edit your posts in this forum
You cannot delete your posts in this forum
You cannot vote in polls in this forum
You cannot attach files in this forum
You can download files in this forum
Верим фактам, а не вранью Путина! Факт, что Правительство ведёт Россию к истреблению.
Так как численность населения падает, даже не смотря на приток эмигрантов!
Русская нация вымирает и вырождается, смешиваясь с эмигрантами!
Факт, что военных и граждан предприятий заставляют голосовать за партию Единая Россия и Путина
ПОД СТРАХОМ УВОЛЬНЕНИЯ!
Нам не нужно Правительство, блокирующее личную жизнь, интернет, нарушающее сохранность данных.
Все эти действия финансируются за счёт народа!