Зловещие мертвецы 2 / Evil Dead II (Сэм Рэйми / Sam Raimi) [1987, США, ужасы, фэнтези, DVDRip-AVC] [Fullscreen] MVO (Киномания) + AVO (Михалёв) + Original (Eng)

Reply to topic
DL-List and Torrent activity
Size:  2.18 GB   |    Registered:  4 years 4 months   |    Completed:  0 times

Seeder not seen: Never

 
   
 
 
Author Message

star21 ®

Gender: Female

Longevity: 4 years 4 months

Posts: 551945

Location: Екатеринбург

Post 30-Nov-2015 05:54

[Quote]

Зловещие мертвецы 2 / Evil Dead II
Год выпуска: 1987
Страна: США
Жанр: ужасы, фэнтези, боевик, комедия
Продолжительность: 01:24:37
Перевод №1: профессиональный многоголосый закадровый (Киномания)
Перевод №2: авторский одноголосный закадровый (Алексей Михалёв)
Оригинальная аудиодорожка: английская
Режиссёр: Сэм Рэйми /Sam Raimi/
В ролях: Брюс Кэмпбелл /Bruce Campbell/, Сара Берри /Sarah Berry/, Дэн Хикс /Dan Hicks/, Кэсси ДеПайва /Kassie Wesley DePaiva/, Тед Рэйми /Ted Raimi/, Дениз Бикслер /Denise Bixler/, Ричард Домайер /Richard Domeier/, Джон Пикс /John Peakes/, Лу Хэнкок /Lou Hancock/
Описание:
Эш возвращается в дом в лесу. Его подружка одержима демонами и больше не принадлежит себе. Эш в одиночку вынужден опять сражаться со злом.
Дополнительная информация:
[imdb]http://www.imdb.com/title/tt0092991[/imdb]: 7.8/10 (101,740 votes)
Рейтинг фильма КиноПоиск.Ru→: 7.391 (14 819 голосов)
Качество: DVDRip-AVC
Контейнер: MKV
Видеопоток: 720x480@720x540, 23.976 fps, x264 ~2400 kbps
Аудиопоток №1 (RUS): DD 5.1, 48 kHz, 384 kbps | профессиональный многоголосый закадровый (Киномания)
Аудиопоток №2 (RUS): DD 5.1, 48 kHz, 448 kbps | авторский одноголосный закадровый (Алексей Михалёв)
Аудиопоток №3 (ENG): DD 5.1, 48 kHz, 448 kbps
Сэмпл: Яндекс.Диск→, multi-up→, sendspace→

x264 Log

x264 [info]: frame I:754   Avg QP:13.99  size: 37296
x264 [info]: frame P:25224 Avg QP:16.24  size: 21971
x264 [info]: frame B:95747 Avg QP:18.68  size:  9826
x264 [info]: consecutive B-frames:  1.7%  2.1% 10.3% 10.4%  6.6% 64.3%  1.8%  0.5%  0.5%  0.3%  0.4%  0.3%  0.2%  0.1%  0.2%  0.2%  0.2%
encoded 121725 frames, 11.27 fps, 2400.03 kb/s

MediaInfo

General
Unique ID                                : 230016718158352279808841439924967371136 (0xAD0B9BC809AEF66994BD3B295782F180)
Complete name                            : Evil.Dead.II.1987.DVDRip.x264.DD-d0ber.mkv
Format                                   : Matroska
Format version                           : Version 4 / Version 2
File size                                : 2.18 GiB
Duration                                 : 1h 24mn
Overall bit rate                         : 3 680 Kbps
Movie name                               : Evil Dead II (1987) DVDRip by d0ber.maNN
Encoded date                             : UTC 2015-08-30 01:12:49
Writing application                      : mkvmerge v7.8.0 ('River Man') 64bit built on Mar 27 2015 16:31:37
Writing library                          : libebml v1.3.1 + libmatroska v1.4.2
DURATION                                 : 01:24:35.232000000
NUMBER_OF_FRAMES                         : 158601
NUMBER_OF_BYTES                          : 284212992
_STATISTICS_WRITING_APP                  : mkvmerge v7.8.0 ('River Man') 64bit built on Mar 27 2015 16:31:37
_STATISTICS_WRITING_DATE_UTC             : 2015-08-30 01:12:49
_STATISTICS_TAGS                         : BPS DURATION NUMBER_OF_FRAMES NUMBER_OF_BYTES
Video
ID                                       : 1
Format                                   : AVC
Format/Info                              : Advanced Video Codec
Format profile                           : High@L4.1
Format settings, CABAC                   : Yes
Format settings, ReFrames                : 16 frames
Codec ID                                 : V_MPEG4/ISO/AVC
Duration                                 : 1h 24mn
Bit rate                                 : 2 400 Kbps
Width                                    : 720 pixels
Height                                   : 480 pixels
Display aspect ratio                     : 4:3
Frame rate mode                          : Constant
Frame rate                               : 23.976 fps
Standard                                 : NTSC
Color space                              : YUV
Chroma subsampling                       : 4:2:0
Bit depth                                : 8 bits
Scan type                                : Progressive
Bits/(Pixel*Frame)                       : 0.290
Stream size                              : 1.38 GiB (63%)
Title                                    : 720x480@720x540, 23.976 fps, x264 ~2400 kbps
Writing library                          : x264 core 148 r2579 73ae2d1
Encoding settings                        : cabac=1 / ref=16 / deblock=1:-3:-3 / analyse=0x3:0x133 / me=umh / subme=10 / psy=1 / psy_rd=1.00:0.00 / mixed_ref=1 / me_range=64 / chroma_me=1 / trellis=2 / 8x8dct=1 / cqm=0 / deadzone=21,11 / fast_pskip=0 / chroma_qp_offset=-2 / threads=6 / lookahead_threads=1 / sliced_threads=0 / nr=0 / decimate=1 / interlaced=0 / bluray_compat=0 / constrained_intra=0 / bframes=16 / b_pyramid=2 / b_adapt=2 / b_bias=0 / direct=3 / weightb=1 / open_gop=0 / weightp=2 / keyint=240 / keyint_min=23 / scenecut=40 / intra_refresh=0 / rc_lookahead=240 / rc=2pass / mbtree=0 / bitrate=2400 / ratetol=1.0 / qcomp=0.75 / qpmin=0 / qpmax=69 / qpstep=4 / cplxblur=20.0 / qblur=0.5 / vbv_maxrate=62500 / vbv_bufsize=78125 / nal_hrd=none / filler=0 / ip_ratio=1.40 / pb_ratio=1.30 / aq=1:0.80
Language                                 : English
Default                                  : Yes
Forced                                   : No
Audio #1
ID                                       : 2
Format                                   : AC-3
Format/Info                              : Audio Coding 3
Mode extension                           : CM (complete main)
Format settings, Endianness              : Big
Codec ID                                 : A_AC3
Duration                                 : 1h 24mn
Bit rate mode                            : Constant
Bit rate                                 : 384 Kbps
Channel(s)                               : 6 channels
Channel positions                        : Front: L C R, Side: L R, LFE
Sampling rate                            : 48.0 KHz
Bit depth                                : 16 bits
Compression mode                         : Lossy
Stream size                              : 232 MiB (10%)
Title                                    : RUS MVO Киномания DD 5.1, 48 kHz, 384 kbps
Language                                 : Russian
Default                                  : Yes
Forced                                   : No
Audio #2
ID                                       : 3
Format                                   : AC-3
Format/Info                              : Audio Coding 3
Mode extension                           : CM (complete main)
Format settings, Endianness              : Big
Codec ID                                 : A_AC3
Duration                                 : 1h 24mn
Bit rate mode                            : Constant
Bit rate                                 : 448 Kbps
Channel(s)                               : 6 channels
Channel positions                        : Front: L C R, Side: L R, LFE
Sampling rate                            : 48.0 KHz
Bit depth                                : 16 bits
Compression mode                         : Lossy
Stream size                              : 271 MiB (12%)
Title                                    : RUS AVO А.Михалёв DD 5.1, 48 kHz, 448 kbps
Language                                 : Russian
Default                                  : No
Forced                                   : No
Audio #3
ID                                       : 4
Format                                   : AC-3
Format/Info                              : Audio Coding 3
Mode extension                           : CM (complete main)
Format settings, Endianness              : Big
Codec ID                                 : A_AC3
Duration                                 : 1h 24mn
Bit rate mode                            : Constant
Bit rate                                 : 448 Kbps
Channel(s)                               : 6 channels
Channel positions                        : Front: L C R, Side: L R, LFE
Sampling rate                            : 48.0 KHz
Bit depth                                : 16 bits
Compression mode                         : Lossy
Stream size                              : 271 MiB (12%)
Title                                    : ENG DD 5.1, 48 kHz, 448 kbps
Language                                 : English
Default                                  : No
Forced                                   : No

Скриншоты


Source vs. Rip


Fullscreen vs. Widescreen


To download the content you need:
1. Download and install torrent client [for Windows] or for mobile system
2. Click on [Download]
Attention.
If the test YOU are NOT a ROBOT - does not work, then You are using an outdated browser.
Install the current browser and click on [Download]

Do not work with Yandex browser. Uploading files to them is erroneous.
Security: torrent client is allowed by Kaspersky.

[en.asmlocator.ru].t4294.torrent 
Torrent: Registered [ 2015-11-30 05:45 ] · 5342E1D6E6F94A23537315278F0D18280A80EEA9

Download .torrent

Download

11 KB

Status: checked
Completed: 0 times
Size: 2.18 GB
terms.php
[Profile] [PM]
Display posts:    
Reply to topic

Current time is: 05-Apr 02:48

All times are UTC ± 0



You cannot post new topics in this forum
You cannot reply to topics in this forum
You cannot edit your posts in this forum
You cannot delete your posts in this forum
You cannot vote in polls in this forum
You cannot attach files in this forum
You can download files in this forum
Верим фактам, а не вранью Путина! Факт, что Правительство ведёт Россию к истреблению.
Так как численность населения падает, даже не смотря на приток эмигрантов!
Русская нация вымирает и вырождается, смешиваясь с эмигрантами!
Факт, что военных и граждан предприятий заставляют голосовать за партию Единая Россия и Путина
ПОД СТРАХОМ УВОЛЬНЕНИЯ!
Нам не нужно Правительство, блокирующее личную жизнь, интернет, нарушающее сохранность данных.
Все эти действия финансируются за счёт народа!