Клич свободы / Cry Freedom (Ричард Аттенборо / Richard Attenborough) [1987, Великобритания, Драма, биография, история, HDTVRip] VO (Rider)

Reply to topic
DL-List and Torrent activity
Size:  1.46 GB   |    Registered:  4 years 4 months   |    Completed:  0 times

Seeder not seen: Never

 
   
 
 
Author Message

star21 ®

Gender: Female

Longevity: 4 years 4 months

Posts: 551945

Location: Екатеринбург

Post 30-Nov-2015 05:54

[Quote]

Клич свободы / Cry Freedom- Год выпуска: 1987
Выпущено: Великобритания / Universal Pictures
Жанр: драма, биография, история
Продолжительность: 02:37:33
Перевод: Одноголосый закадровый Rider
Cубтитры: нет-Режиссер:
Ричард Аттенборо / Richard Attenborough-В ролях:
Кевин Клайн (Donald Woods), Дензел Вашингтон (Steve Biko), Пенелопа Уилтон (Wendy Woods), Кейт Харди (Jane Woods), Кевин МакНэлли (Ken), Джозетт Саймон (Dr. Ramphele), Хуанита Уотермен (Ntsiki Biko), Эндрю Уэли (Sub-Editor), Джеймс Обри (2nd Passport Control officer), Джон Тоу (Kruger)-Описание:
В центре внимания фильма судьбы двух людей: лидера движения за национальное самосознание африканского населения Банту Стивена Бико и первоначально критиковавшего Бико за «чёрный расизм» белого журналиста Дональда Вудса из Ист-Лондона, портового города в ЮАР, который, постепенно подружившись с Бико и разобравшись в истинных целях деятельности молодого борца с апартеидом, встал на его сторону…-Релиз групп | | [imdb]http://www.imdb.com/title/tt0092804[/imdb] | КиноПоиск | Сэмпл |-Качество: HDTVRip [HDTV | 720р | Кинозал]
Формат: AVI
Видео: 720x304 (2.37:1), 23.976 fps, XviD build 73 ~1190 kbps avg, 0.23 bit/pixel
Аудио: 48 kHz, MPEG Layer 3, 2 ch, ~128.00 kbps avg-

Скриншоты

MediaInfo

General
Complete name                            : D:\Klich_svobody_1987_HDTVRip_by_Dalemake.avi
Format                                   : AVI
Format/Info                              : Audio Video Interleave
File size                                : 1.46 GiB
Duration                                 : 2h 37mn
Overall bit rate                         : 1 328 Kbps
Writing application                      : VirtualDubMod 1.5.10.3 | www.virtualdub-fr.org || (build 2550/release)
Writing library                          : VirtualDubMod build 2550/release
Video
ID                                       : 0
Format                                   : MPEG-4 Visual
Format profile                           : Advanced Simple@L5
Format settings, BVOP                    : 1
Format settings, QPel                    : No
Format settings, GMC                     : No warppoints
Format settings, Matrix                  : Custom
Codec ID                                 : XVID
Codec ID/Hint                            : XviD
Duration                                 : 2h 37mn
Bit rate                                 : 1 191 Kbps
Width                                    : 720 pixels
Height                                   : 304 pixels
Display aspect ratio                     : 2.35:1
Frame rate                               : 23.976 fps
Color space                              : YUV
Chroma subsampling                       : 4:2:0
Bit depth                                : 8 bits
Scan type                                : Progressive
Compression mode                         : Lossy
Bits/(Pixel*Frame)                       : 0.227
Stream size                              : 1.31 GiB (90%)
Writing library                          : XviD 73
Audio
ID                                       : 1
Format                                   : MPEG Audio
Format version                           : Version 1
Format profile                           : Layer 3
Codec ID                                 : 55
Codec ID/Hint                            : MP3
Duration                                 : 2h 37mn
Bit rate mode                            : Constant
Bit rate                                 : 128 Kbps
Channel(s)                               : 2 channels
Sampling rate                            : 48.0 KHz
Compression mode                         : Lossy
Stream size                              : 144 MiB (10%)
Alignment                                : Aligned on interleaves
Interleave, duration                     : 42 ms (1.00 video frame)
Interleave, preload duration             : 504 ms
Writing library                          : LAME3.99r
Encoding settings                        : -m s -V 4 -q 2 -lowpass 17 -b 128

Сравнение

- не для поглощения
http://screenshotcomparison.com/comparison/140835
-

To download the content you need:
1. Download and install torrent client [for Windows] or for mobile system
2. Click on [Download]
Attention.
If the test YOU are NOT a ROBOT - does not work, then You are using an outdated browser.
Install the current browser and click on [Download]

Do not work with Yandex browser. Uploading files to them is erroneous.
Security: torrent client is allowed by Kaspersky.

[en.asmlocator.ru].t4289.torrent 
Torrent: Registered [ 2015-11-30 05:45 ] · CEDC22F284AAF58C7C92B1BE2F3481DE23CB955A

Download .torrent

Download

15 KB

Status: checked
Completed: 0 times
Size: 1.46 GB
terms.php
[Profile] [PM]
Display posts:    
Reply to topic

Current time is: 03-Apr 03:14

All times are UTC ± 0



You cannot post new topics in this forum
You cannot reply to topics in this forum
You cannot edit your posts in this forum
You cannot delete your posts in this forum
You cannot vote in polls in this forum
You cannot attach files in this forum
You can download files in this forum
Верим фактам, а не вранью Путина! Факт, что Правительство ведёт Россию к истреблению.
Так как численность населения падает, даже не смотря на приток эмигрантов!
Русская нация вымирает и вырождается, смешиваясь с эмигрантами!
Факт, что военных и граждан предприятий заставляют голосовать за партию Единая Россия и Путина
ПОД СТРАХОМ УВОЛЬНЕНИЯ!
Нам не нужно Правительство, блокирующее личную жизнь, интернет, нарушающее сохранность данных.
Все эти действия финансируются за счёт народа!