Могучий Куинн / The Mighty Quinn (Карл Шенкель / Carl Schenkel) [1989, США, Боевик, триллер, драма, криминал, детектив, HDTVRip] MVO (НТВ+)

Reply to topic
DL-List and Torrent activity
Size:  1.46 GB   |    Registered:  4 years 6 months   |    Completed:  0 times
DL-List: None

Seeder not seen: Never

 
   
 
 
Author Message

star21 ®

Gender: Female

Longevity: 4 years 7 months

Posts: 551945

Location: Екатеринбург

Post 30-Nov-2015 05:54

[Quote]

Могучий Куинн / The Mighty Quinn- Год выпуска: 1989
Выпущено: США / Metro-Goldwyn-Mayer (MGM)
Жанр: боевик, триллер, драма, криминал, детектив
Продолжительность: 01:34:31
Перевод: Профессиональный (многоголосый закадровый) НТВ+
Cубтитры: нет-Режиссер:
Карл Шенкель / Carl Schenkel-В ролях:
Дензел Вашингтон (Xavier Quinn), Джеймс Фокс (Thomas Elgin), Мими Роджерс (Hadley Elgin), М. Эммет Уолш (Fred Miller), Шерил Ли Ральф (Lola Quinn), Арт Эванс (Jump Jones), Эстер Ролли (Ubu Pearl), Норман Битон (Governor Chalk), Алекс Колон (Jose Patina), Роберт Таунзенд (Maubee)-Описание:
Один из Карибских островов. Чернокожий полицейский ведет расследование убийства, которое причастные к нему люди из высшего общества хотят скрыть. Будучи хорошим полицейским и стремясь распутать дело, наш герой игнорирует предупреждения местных белых шишек и даже губернатора…-Релиз групп | | [imdb]http://www.imdb.com/title/tt0097880[/imdb] | КиноПоиск | Сэмпл |-Качество: HDTVRip [HDTV | 1080i | HDCLUB]
Формат: AVI
Видео: 704x384 (1.83:1), 25 fps, XviD build 73 ~2005 kbps avg, 0.30 bit/pixel
Аудио: 48 kHz, AC3 Dolby Digital, 2/0 (L,R) ch, ~192.00 kbps avg-

Скриншоты

MediaInfo

General
Complete name                            : D:\Moguchyi_Kuinn_1989_HDTVRip_by_Dalemake.avi
Format                                   : AVI
Format/Info                              : Audio Video Interleave
File size                                : 1.46 GiB
Duration                                 : 1h 34mn
Overall bit rate                         : 2 207 Kbps
Writing application                      : VirtualDubMod 1.5.10.3 | www.virtualdub-fr.org || (build 2550/release)
Writing library                          : VirtualDubMod build 2550/release
Video
ID                                       : 0
Format                                   : MPEG-4 Visual
Format profile                           : Advanced Simple@L5
Format settings, BVOP                    : 1
Format settings, QPel                    : No
Format settings, GMC                     : No warppoints
Format settings, Matrix                  : Custom
Codec ID                                 : XVID
Codec ID/Hint                            : XviD
Duration                                 : 1h 34mn
Bit rate                                 : 2 005 Kbps
Width                                    : 704 pixels
Height                                   : 384 pixels
Display aspect ratio                     : 1.85:1
Frame rate                               : 25.000 fps
Color space                              : YUV
Chroma subsampling                       : 4:2:0
Bit depth                                : 8 bits
Scan type                                : Progressive
Compression mode                         : Lossy
Bits/(Pixel*Frame)                       : 0.297
Stream size                              : 1.32 GiB (91%)
Writing library                          : XviD 73
Audio
ID                                       : 1
Format                                   : AC-3
Format/Info                              : Audio Coding 3
Mode extension                           : CM (complete main)
Format settings, Endianness              : Big
Codec ID                                 : 2000
Duration                                 : 1h 34mn
Bit rate mode                            : Constant
Bit rate                                 : 192 Kbps
Channel(s)                               : 2 channels
Channel positions                        : Front: L R
Sampling rate                            : 48.0 KHz
Bit depth                                : 16 bits
Compression mode                         : Lossy
Stream size                              : 130 MiB (9%)
Alignment                                : Split accross interleaves
Interleave, duration                     : 40 ms (1.00 video frame)
Interleave, preload duration             : 500 ms

Сравнение

- недокроп по бокам
http://screenshotcomparison.com/comparison/140880
-

To download the content you need:
1. Download and install torrent client [for Windows] or for mobile system
2. Click on [Download]
Attention.
If the test YOU are NOT a ROBOT - does not work, then You are using an outdated browser.
Install the current browser and click on [Download]

Do not work with Yandex browser. Uploading files to them is erroneous.
Security: torrent client is allowed by Kaspersky.

[en.asmlocator.ru].t4288.torrent 
Torrent: Registered [ 2015-11-30 05:45 ] · 914B5E7871C5D23A9AE705B5135CFAD3BF210098

Download .torrent

Download

15 KB

Status: checked
Completed: 0 times
Size: 1.46 GB
terms.php
[Profile] [PM]
Display posts:    
Reply to topic

Current time is: 06-Jun 07:17

All times are UTC ± 0



You cannot post new topics in this forum
You cannot reply to topics in this forum
You cannot edit your posts in this forum
You cannot delete your posts in this forum
You cannot vote in polls in this forum
You cannot attach files in this forum
You can download files in this forum
Верим фактам, а не вранью Путина! Факт, что Правительство ведёт Россию к истреблению.
Так как численность населения падает, даже не смотря на приток эмигрантов!
Русская нация вымирает и вырождается, смешиваясь с эмигрантами!
Факт, что военных и граждан предприятий заставляют голосовать за партию Единая Россия и Путина
ПОД СТРАХОМ УВОЛЬНЕНИЯ!
Нам не нужно Правительство, блокирующее личную жизнь, интернет, нарушающее сохранность данных.
Все эти действия финансируются за счёт народа!