Последний дракон / The Last Dragon (Майкл Шульц / Michael Schultz) [1985, США, боевик, драма, комедия, музыка, BDRip] MVO (Первый канал)

Reply to topic
DL-List and Torrent activity
Size:  747 MB   |    Registered:  4 years 4 months   |    Completed:  0 times

Seeder not seen: Never

 
   
 
 
Author Message

star21 ®

Gender: Female

Longevity: 4 years 4 months

Posts: 551945

Location: Екатеринбург

Post 30-Nov-2015 05:54

[Quote]

Последний дракон / The Last Dragon- Страна: США
Жанр: боевик, драма, комедия, музыка
Год выпуска: 1985
Продолжительность: 01:48:18
Перевод: Профессиональный (многоголосый закадровый) Первый канал
Cубтитры: нет
Режиссер: Майкл Шульц / Michael Schultz
В ролях: Таймак, Вэнити, Кристофер Мёрни, Джулиус Кэрри, Фэйт Принс, Лео О’Брайэн, Майк Старр, Джим Муди, Глен Итон, Эрни Рейес мл.
Описание: Молодой афро-американец Брюс Лерой мечтает стать вторым Брюсом Ли. Он отправляется в большой город в надежде найти учителя, который сделает из него копию кумира — короля боевых искусств. Но неожиданно парнишка влюбляется. Да ни в кого-нибудь, а в популярнейшую поп-певицу Лауру Чарлз! Естественно, звезду окружает разная публика. И только Брюс сможет защитить возлюбленную и от назойливых поклонников, и от местной мафии...

Автор: BEN-BEN
Релиз:
Качество видео: BDRip (Исходник: HDTRACKER / Blu-Ray Remux 1080p)
Формат видео: AVI
Видео: 704x384 (1.83:1), 23.976 fps, XviD build 73 ~762 kbps avg, 0.12 bit/pixel
Аудио: 48 kHz, AC3 Dolby Digital, 2/0 (L,R) ch, ~192 kbps

MediaInfo

Общее
Полное имя : C:\Documents and Settings\User\Рабочий стол\Кинозал.тв\The Last Dragon.(1985).BDRip.BEN-BEN.avi
Формат : AVI
Формат/Информация : Audio Video Interleave
Размер файла : 747 Мбайт
Продолжительность : 1 ч. 48 м.
Общий поток : 964 Кбит/сек
Программа кодирования : VirtualDubMod 1.5.10.3 | www.virtualdub-fr.org || (build 2550/release)
Библиотека кодирования : VirtualDub build 32842/release
Видео
Идентификатор : 0
Формат : MPEG-4 Visual
Профиль формата : Advanced Simple@L5
Параметр BVOP формата : 1
Параметр QPel формата : Нет
Параметр GMC формата : Без точки перехода
Параметр матрицы формата : Выборочная
Идентификатор кодека : XVID
Идентификатор кодека/Подсказка : XviD
Продолжительность : 1 ч. 48 м.
Битрейт : 762 Кбит/сек
Ширина : 704 пикселя
Высота : 384 пикселя
Соотношение сторон : 1,85:1
Частота кадров : 23,976 кадра/сек
Цветовое пространство : YUV
Субдискретизация насыщенности : 4:2:0
Битовая глубина : 8 бит
Тип развёртки : Прогрессивная
Метод сжатия : С потерями
Бит/(Пиксели*Кадры) : 0.118
Размер потока : 591 Мбайт (79%)
Библиотека кодирования : XviD 73
Аудио
Идентификатор : 1
Формат : AC-3
Формат/Информация : Audio Coding 3
Расширение режима : CM (complete main)
Параметр Endianness формата : Big
Идентификатор кодека : 2000
Продолжительность : 1 ч. 48 м.
Вид битрейта : Постоянный
Битрейт : 192 Кбит/сек
Каналы : 2 канала
Расположение каналов : Front: L R
Частота : 48,0 КГц
Битовая глубина : 16 бит
Метод сжатия : С потерями
Размер потока : 149 Мбайт (20%)
Выравнивание : Соединение по промежуткам
Продолжительность промежутка : 42 мс. (1,00 видеокадр)
Время предзагрузки промежутка : 512 мс.

Скриншоты


Сравнение

Переводы одинаковые
http://screenshotcomparison.com/comparison/140890

To download the content you need:
1. Download and install torrent client [for Windows] or for mobile system
2. Click on [Download]
Attention.
If the test YOU are NOT a ROBOT - does not work, then You are using an outdated browser.
Install the current browser and click on [Download]

Do not work with Yandex browser. Uploading files to them is erroneous.
Security: torrent client is allowed by Kaspersky.

[en.asmlocator.ru].t4287.torrent 
Torrent: Registered [ 2015-11-30 05:45 ] · C355C14AD0873CBB0A0169AE1D05B8E1A4A9D58F

Download .torrent

Download

15 KB

Status: checked
Completed: 0 times
Size: 747 MB
terms.php
[Profile] [PM]
Display posts:    
Reply to topic

Current time is: 31-Mar 16:19

All times are UTC ± 0



You cannot post new topics in this forum
You cannot reply to topics in this forum
You cannot edit your posts in this forum
You cannot delete your posts in this forum
You cannot vote in polls in this forum
You cannot attach files in this forum
You can download files in this forum
Верим фактам, а не вранью Путина! Факт, что Правительство ведёт Россию к истреблению.
Так как численность населения падает, даже не смотря на приток эмигрантов!
Русская нация вымирает и вырождается, смешиваясь с эмигрантами!
Факт, что военных и граждан предприятий заставляют голосовать за партию Единая Россия и Путина
ПОД СТРАХОМ УВОЛЬНЕНИЯ!
Нам не нужно Правительство, блокирующее личную жизнь, интернет, нарушающее сохранность данных.
Все эти действия финансируются за счёт народа!