Скрытый враг / Скрытые / Hidden, The (Джек Шолдер / Jack Sholder) [1987, США, ужасы, фантастика, боевик, криминал, WEB-DLRip] DVO + AVO (Гаврилов)

Reply to topic
DL-List and Torrent activity
Size:  834 MB   |    Registered:  4 years 3 months   |    Completed:  0 times

Seeder not seen: Never

 
   
 
 
Author Message

star21 ®

Gender: Female

Longevity: 4 years 4 months

Posts: 551945

Location: Екатеринбург

Post 30-Nov-2015 05:54

[Quote]

Скрытый враг / Скрытые / Hidden, The
Страна: США
Жанр: ужасы, фантастика, боевик, криминал
Год выпуска: 1987
Продолжительность: 01:37:04
Перевод: Профессиональный (двухголосый закадровый)
Перевод 2: Авторский (одноголосый закадровый) Гаврилов
Cубтитры: нет
Режиссер: Джек Шолдер / Jack Sholder
В ролях: Кайл МакЛаклэн, Майкл Нури, Клаудия Кристиан, Кларенс Фелдер, Клу Гулагер, Эд О'Росс, Уильям Бойетт
Описание: Отдел по расследованию убийств не спит уже которую ночь: по городу катится волна необычных преступлений. Своеобразие их в том, что все преступники — вполне добропорядочные и законопослушные граждане, в которых будто бы сам черт вселился, заставляя их творить всяческие кошмарные, ненормальные вещи. У детектива Тома Бека, ведущего следствие по этому делу, просто голова кругом идет…
И уж, конечно же, меньше всего ему хочется оказывать всяческое содействие присланному сверху сотруднику ФБР Ллойду Гэллагеру, — человеку со странностями, логику которого понять, кажется, абсолютно невозможно. Но что если и вправду это дело рук инопланетян, вселяющихся в тела землян?"
[imdb]http://www.imdb.com/title/tt0093185[/imdb]
Качество видео: WEB-DLRip
Формат видео: AVI
Видео: 608x320, 23.976 fps, XviD ~935 kbps avg, 0.200 bit/pixel
Аудио: 48 kHz, MPEG Layer 3, 2 ch, 128 kbps avg - DVO
Аудио 2: 48 kHz, MPEG Layer 3, 2 ch, 128 kbps avg - AVO (отдельным файлом)Релиз группы

MediaInfo

General
Complete name               : C:\Video\Hidden\The.Hidden WEB-DLRip.avi
Format                      : AVI
Format/Info                 : Audio Video Interleave
File size                   : 745 MiB
Duration                    : 1h 37mn
Overall bit rate            : 1 073 Kbps
Writing application         : VirtualDubMod 1.5.10.3 | www.virtualdub-fr.org || (build 2550/release)
Writing library             : VirtualDubMod build 2550/release
Video
ID                          : 0
Format                      : MPEG-4 Visual
Format profile              : Advanced Simple@L5
Format settings, BVOP       : 2
Format settings, QPel       : No
Format settings, GMC        : No warppoints
Format settings, Matrix     : Default (MPEG)
Codec ID                    : XVID
Codec ID/Hint               : XviD
Duration                    : 1h 37mn
Bit rate                    : 935 Kbps
Width                       : 608 pixels
Height                      : 320 pixels
Display aspect ratio        : 1.900
Frame rate                  : 23.976 fps
Color space                 : YUV
Chroma subsampling          : 4:2:0
Bit depth                   : 8 bits
Scan type                   : Progressive
Compression mode            : Lossy
Bits/(Pixel*Frame)          : 0.200
Stream size                 : 649 MiB (87%)
Writing library             : XviD 1.2.1 (UTC 2008-12-04)
Audio
ID                          : 1
Format                      : MPEG Audio
Format version              : Version 1
Format profile              : Layer 3
Codec ID                    : 55
Codec ID/Hint               : MP3
Duration                    : 1h 37mn
Bit rate mode               : Constant
Bit rate                    : 128 Kbps
Channel(s)                  : 2 channels
Sampling rate               : 48.0 KHz
Compression mode            : Lossy
Stream size                 : 88.9 MiB (12%)
Alignment                   : Aligned on interleaves
Interleave, duration        : 42 ms (1.00 video frame)
Interleave, preload duratio : 504 ms
Writing library             : LAME3.99r
Encoding settings           : -m s -V 4 -q 0 -lowpass 17 -b 128

Скриншот c названием фильма

Скриншоты

To download the content you need:
1. Download and install torrent client [for Windows] or for mobile system
2. Click on [Download]
Attention.
If the test YOU are NOT a ROBOT - does not work, then You are using an outdated browser.
Install the current browser and click on [Download]

Do not work with Yandex browser. Uploading files to them is erroneous.
Security: torrent client is allowed by Kaspersky.

[en.asmlocator.ru].t4285.torrent 
Torrent: Registered [ 2015-11-30 05:45 ] · A028DC7A9B8FF1BE44D276BCDEF1C8E2334889B3

Download .torrent

Download

17 KB

Status: checked
Completed: 0 times
Size: 834 MB
terms.php
[Profile] [PM]
Display posts:    
Reply to topic

Current time is: 29-Mar 00:57

All times are UTC ± 0



You cannot post new topics in this forum
You cannot reply to topics in this forum
You cannot edit your posts in this forum
You cannot delete your posts in this forum
You cannot vote in polls in this forum
You cannot attach files in this forum
You can download files in this forum
Верим фактам, а не вранью Путина! Факт, что Правительство ведёт Россию к истреблению.
Так как численность населения падает, даже не смотря на приток эмигрантов!
Русская нация вымирает и вырождается, смешиваясь с эмигрантами!
Факт, что военных и граждан предприятий заставляют голосовать за партию Единая Россия и Путина
ПОД СТРАХОМ УВОЛЬНЕНИЯ!
Нам не нужно Правительство, блокирующее личную жизнь, интернет, нарушающее сохранность данных.
Все эти действия финансируются за счёт народа!