Мой новый напарник / Гном по имени Гнорм / A Gnome Named Gnorm / Up world / Gnomo cop (Стэн Уинстон / Stan Winston) [1990, США, фэнтези, боевик, комедия, приключения, семейный, VHSRip] AVO (Кузнецов)

Reply to topic
DL-List and Torrent activity
Size:  1.37 GB   |    Registered:  4 years 4 months   |    Completed:  1 time

Seeder not seen: 5 months 21 day

 
   
 
 
Author Message

star21 ®

Gender: Female

Longevity: 4 years 5 months

Posts: 551945

Location: Екатеринбург

Post 30-Nov-2015 05:54

[Quote]

Мой новый напарник / Гном по имени Гнорм / A Gnome Named Gnorm / Up world / Gnomo cop
Страна: США
Жанр: фэнтези, боевик, комедия, приключения, семейный
Год выпуска: 1990
Продолжительность: 01:26:03
Перевод: Авторский (одноголосый закадровый) Кузнецов
Cубтитры: нет
Оригинальная аудиодорожка: нет
Режиссер: Стэн Уинстон / Stan Winston
В ролях: Энтони Майкл Холл, Джерри Орбак, Клаудия Кристиан, Эли Данкер, Марк Харелик, Роберт З’Дар, Майк Эйвери, Крэйг Кэтон, Грэг Фигел, Эрик Карлен
Описание: Молодому полицейскому из Лос-Анджелеса Кейси Галахеру поручено провести секретную операцию. Он должен поймать с поличным гангстера, продающего краденые бриллианты. Прихватив с собой чемоданчик, полный денег, Кейси идет на дело.. и получает удар по голове. А, очнувшись, находит неожиданную поддержку в лице симпатичного гнома по имени Гнорм.
Оказалось, что им обоим нужно поймать одного и того же гангстера. Кейси должен вернуть казенные деньги, а гном — чудодейственный сияющий кристалл «Люмен», дарующий свет и жизнь обитателям подземного мира.
Сэмпл: http://sendfile.su/1151084
Качество видео: VHSRip
Формат видео: AVI
Видео: 688x512 (1.34:1), 25 fps, DivX Codec 6.8.5/6.9.1 ~2072 kbps avg, 0.23 bit/pixel
Аудио: 48 kHz, AC3 Dolby Digital, 2/0 (L,R) ch, ~192 kbps

MediaInfo

Формат : AVI
Формат/Информация : Audio Video Interleave
Размер файла : 1,37 Гбайт
Продолжительность : 1 ч. 26 м.
Общий поток : 2274 Кбит/сек
Библиотека кодирования : VirtualDub build 34807/release
Видео
Идентификатор : 0
Формат : MPEG-4 Visual
Параметр BVOP формата : Да
Параметр QPel формата : Нет
Параметр GMC формата : Без точки перехода
Параметр матрицы формата : Default (H.263)
Идентификатор кодека : DX50
Идентификатор кодека/Подсказка : DivX 5
Продолжительность : 1 ч. 26 м.
Битрейт : 2072 Кбит/сек
Ширина : 688 пикселей
Высота : 512 пикселей
Соотношение сторон : 4:3
Частота кадров : 25,000 кадров/сек
Цветовое пространство : YUV
Субдискретизация насыщенности : 4:2:0
Битовая глубина : 8 бит
Тип развёртки : Прогрессивная
Метод сжатия : С потерями
Бит/(Пиксели*Кадры) : 0.235
Размер потока : 1,25 Гбайт (91%)
Библиотека кодирования : DivX 6.8.5 (UTC 2009-08-20)
Аудио
Идентификатор : 1
Формат : AC-3
Формат/Информация : Audio Coding 3
Расширение режима : CM (complete main)
Идентификатор кодека : 2000
Продолжительность : 1 ч. 26 м.
Вид битрейта : Постоянный
Битрейт : 192 Кбит/сек
Каналы : 2 канала
Расположение каналов : Front: L R
Частота : 48,0 КГц
Битовая глубина : 16 бит
Метод сжатия : С потерями
Размер потока : 118 Мбайт (8%)
Выравнивание : Соединение по промежуткам
Продолжительность промежутка : 40 мс. (1,00 видеокадр)
Время предзагрузки промежутка : 512 мс.

Скриншоты

To download the content you need:
1. Download and install torrent client [for Windows] or for mobile system
2. Click on [Download]
Attention.
If the test YOU are NOT a ROBOT - does not work, then You are using an outdated browser.
Install the current browser and click on [Download]

Do not work with Yandex browser. Uploading files to them is erroneous.
Security: torrent client is allowed by Kaspersky.

[en.asmlocator.ru].t4284.torrent 
Torrent: Registered [ 2015-11-30 05:45 ] · 261BA675023227E1E7AED861840781993D43D3D9

Download .torrent

Download

28 KB

Status: checked
Completed: 1 times
Size: 1.37 GB
terms.php
[Profile] [PM]
Display posts:    
Reply to topic

Current time is: 10-Apr 08:23

All times are UTC ± 0



You cannot post new topics in this forum
You cannot reply to topics in this forum
You cannot edit your posts in this forum
You cannot delete your posts in this forum
You cannot vote in polls in this forum
You cannot attach files in this forum
You can download files in this forum
Верим фактам, а не вранью Путина! Факт, что Правительство ведёт Россию к истреблению.
Так как численность населения падает, даже не смотря на приток эмигрантов!
Русская нация вымирает и вырождается, смешиваясь с эмигрантами!
Факт, что военных и граждан предприятий заставляют голосовать за партию Единая Россия и Путина
ПОД СТРАХОМ УВОЛЬНЕНИЯ!
Нам не нужно Правительство, блокирующее личную жизнь, интернет, нарушающее сохранность данных.
Все эти действия финансируются за счёт народа!